emlaklik & sedatyucel

The Beatles Help | DVDRip XviD | 1965 | Rapid | Download | iNDiR

The Beatles Help DVDRip XviD Language | Dublaj Dili : English Release Date | Gösterim Tarihi : 1965 Upload By geompac ( 12 Mayıs 2010 ) Uploader Notu : Altyazı Dosyası içinde DEĞİLDİR!

Bu konu 2352 kez görüntülendi ve 4 yorum aldı ...

    Konuyu değerlendir: The Beatles Help | DVDRip XviD | 1965 | Rapid | Download | iNDiR

    5 üzerinden | Toplam: 0 kişi oyladı ve 2352 kez incelendi.


Toplam 5 adet sonuctan sayfa basi 1 ile 5 arasi kadar sonuc gösteriliyor
  1. #1

    Genel Yönetici

    Dvdrip The Beatles Help | DVDRip XviD | 1965 | Rapid | Download | iNDiR


    The Beatles Help

    DVDRip XviD

    Language | Dublaj Dili : English
    Release Date | Gösterim Tarihi : 1965
    Upload By geompac ( 12 Mayıs 2010 )

    Uploader Notu : Altyazı Dosyası içinde DEĞİLDİR!







    http://www.imdb.com/title/tt0059260/





    Alıntı
    Video
    ID : 0
    Format : MPEG-4 Visual
    Format profile : Advanced [email protected]
    Format settings, BVOP : Yes
    Format settings, QPel : No
    Format settings, GMC : No warppoints
    Format settings, Matrix : Default (H.263)
    Muxing mode : Packed bitstream
    Codec ID : DX50
    Codec ID/Hint : DivX 5
    Duration : 1h 32mn
    Bit rate : 1 133 Kbps
    Width : 624 pixels
    Height : 368 pixels
    Display aspect ratio : 1.696
    Frame rate : 25.000 fps
    Resolution : 8 bits
    Colorimetry : 4:2:0
    Scan type : Progressive
    Bits/(Pixel*Frame) : 0.197
    Stream size : 747 MiB (88%)
    Writing library : XviD 1.2.0.dev47 (UTC 2006-11-01)

    Audio
    ID : 1
    Format : MPEG Audio
    Format version : Version 1
    Format profile : Layer 3
    Mode : Joint stereo
    Codec ID : 55
    Codec ID/Hint : MP3
    Duration : 1h 32mn
    Bit rate mode : Variable
    Bit rate : 138 Kbps
    Nominal bit rate : 160 Kbps
    Channel(s) : 2 channels
    Sampling rate : 48.0 KHz
    Stream size : 90.9 MiB (11%)
    Alignment : Aligned on interleaves
    Interleave, duration : 24 ms (0.60 video frame)
    Interleave, preload duration : 434 ms
    Writing library : LAME3.97
    Encoding settings : -m j -V 4 -q 2 -lowpass 17.5 --abr 160











    Bir Part Boyutu: 200 MB - Toplam Boyut: 850 MB

    [HIDE]
     
    Rapidshare
    http://rapidshare.com/files/386129734/CSHTR.geompac.TBH.1965.part1.rar
    http://rapidshare.com/files/386144673/CSHTR.geompac.TBH.1965.part2.rar
    http://rapidshare.com/files/386157038/CSHTR.geompac.TBH.1965.part3.rar
    http://rapidshare.com/files/386169471/CSHTR.geompac.TBH.1965.part4.rar
    http://rapidshare.com/files/386172795/CSHTR.geompac.TBH.1965.part5.rar
    Enterupload
    http://www.enterupload.com/m2lrdfcgg0qb/CSHTR.geompac.TBH.1965.part1.rar.html
    http://www.enterupload.com/lzd5u25yz1j7/CSHTR.geompac.TBH.1965.part2.rar.html
    http://www.enterupload.com/k41cbb1u3933/CSHTR.geompac.TBH.1965.part3.rar.html
    http://www.enterupload.com/4hejf8igfbl3/CSHTR.geompac.TBH.1965.part4.rar.html
    http://www.enterupload.com/fs5rsc2nozlz/CSHTR.geompac.TBH.1965.part5.rar.html
    Dll.bz
    http://dll.bz/file/2379/cshtr.geompac.tbh.1965.part1.rar.html
    http://dll.bz/file/2380/cshtr.geompac.tbh.1965.part2.rar.html
    http://dll.bz/file/2381/cshtr.geompac.tbh.1965.part3.rar.html
    http://dll.bz/file/2382/cshtr.geompac.tbh.1965.part4.rar.html
    http://dll.bz/file/2383/cshtr.geompac.tbh.1965.part5.rar.html
    [/HIDE]





    www.cshtr.com




    icemenn, MetaLyuM, RuhY ve 6 kişi daha bunu beğendi.

  2. #2

    Standart

    gerçekten çok teşşekürler

  3. #3

    Standart

    teşekkürler

  4. #4

    Standart

    linkler kırık sanırım. acılmıo yenileyebilirseniz cok sevinirim tesekkurler.

  5. #5

    Standart

    teşekkürler

Benzer Konular

  1. The Sound of Music | DVDRip | 1965 | Rapid | Download | iNDiR
    Konu Sahibi geompac Forum DVDRip | DVBRip Orj
    Cevap: 6
    Son Mesaj : 28.Mart.2015, 13:57
  2. Cevap: 9
    Son Mesaj : 02.Ocak.2013, 17:28
  3. Cevap: 6
    Son Mesaj : 02.Ocak.2013, 17:17
  4. Cevap: 1
    Son Mesaj : 31.Aralık.2012, 01:15