emlaklik & sedatyucel

G.I. Joe: The Rise of Cobra | 2009 | DVDRip | Download | iNDiR

G.I. Joe: The Rise of Cobra G.I. Joe: Kobra'nın Yükselişi DVDRip Language | Dublaj Dili : English Release Date | Gösterim Tarihi : 2009 Uploaded By Tiko (01 Eylül 2012 )

Bu konu 25388 kez görüntülendi ve 114 yorum aldı ...

    Konuyu değerlendir: G.I. Joe: The Rise of Cobra | 2009 | DVDRip | Download | iNDiR

    5 üzerinden 4.00 | Toplam: 1 kişi oyladı ve 25388 kez incelendi.


Sayfa 12 Toplam 12 Sayfadan BirinciBirinci ... 289101112
Toplam 115 adet sonuctan sayfa basi 111 ile 115 arasi kadar sonuc gösteriliyor
  1. #1

    Dvdrip G.I. Joe: The Rise of Cobra | 2009 | DVDRip | Download | iNDiR

    G.I. Joe: The Rise of Cobra

    G.I. Joe: Kobra'nın Yükselişi

    DVDRip

    Language | Dublaj Dili : English
    Release Date | Gösterim Tarihi : 2009
    Uploaded By Tiko (01 Eylül 2012 )

    Bu paylaşımın toplam boyutu 1,37 GB olup, Turbobit Netload Filefactory Uploaded sunucularına upload edilmiştir.

    Uploader Notu :
    Daha Hızlı indirmek ve sitemize destek olmak için Premium hesap alırken
    lütfen aşağıdaki simgeleri tıklayarak alınız. Duyarlılığınız için teşekkür ederiz.



    Altyazı Takip Linki : http://www.turkcealtyazi.org/mov/104...-of-cobra.html







    http://www.imdb.com/title/tt1046173/



    Alıntı

    Yakın bir gelecekte, silah uzmanı James McCullen bir şehri tamamen yok edebilecek bir silah üretir. Silah uzmanının şirketi M.A.R.S. NATO'ya dört savaş başlığını satar ve NATO askerleri savaş başlıklarını teslim görevi üzerindeyken Baroniçe tarafından kıstırılırlar.


     
    
    Format : AVI
    Format/Info : Audio Video Interleave
    File size : 1.37 GiB
    Duration : 1h 57mn
    Overall bit rate : 1 659 Kbps
    Writing application : VirtualDubMod 1.5.10.2 (build 2542/release)
    Writing library : VirtualDubMod build 2542/release
    
    Video
    ID : 0
    Format : MPEG-4 Visual
    Format profile : [email protected]
    Format settings, BVOP : Yes
    Format settings, QPel : No
    Format settings, GMC : No warppoints
    Format settings, Matrix : Default (H.263)
    Codec ID : XVID
    Codec ID/Hint : XviD
    Duration : 1h 57mn
    Bit rate : 1 202 Kbps
    Width : 640 pixels
    Height : 272 pixels
    Display aspect ratio : 2.35:1
    Frame rate : 23.976 fps
    Resolution : 24 bits
    Colorimetry : 4:2:0
    Scan type : Progressive
    Bits/(Pixel*Frame) : 0.288
    Stream size : 1 014 MiB (72%)
    Writing library : XviD 1.2.1 (UTC 2008-12-04)
    
    Audio
    ID : 1
    Format : AC-3
    Format/Info : Audio Coding 3
    Codec ID : 2000
    Duration : 1h 57mn
    Bit rate mode : Constant
    Bit rate : 448 Kbps
    Channel(s) : 6 channels
    Channel positions : Front: L C R, Surround: L R, LFE
    Sampling rate : 48.0 KHz
    Video delay : 1s 300ms
    Stream size : 378 MiB (27%)
    Alignment : Split accross interleaves
    Interleave, duration : 42 ms (1.00 video frame)
    Interleave, preload duration : 500 ms
    













    Bir Part Boyutu: 299 MB - Toplam Boyut: 1,37 GB





    [HIDE]
     
    http://turbobit.net/32jij2eo1h07/CSHTR.1912.F.Tiko.G.i.Joe.The.Rise.of.Cobra.2009.DVDRip.XviD-MAXSPEED.vip.cshtr.com.part3.rar.html
    http://turbobit.net/98x364w7vl9d/CSHTR.1912.F.Tiko.G.i.Joe.The.Rise.of.Cobra.2009.DVDRip.XviD-MAXSPEED.vip.cshtr.com.part5.rar.html
    http://turbobit.net/aql9erfgcsxp/CSHTR.1912.F.Tiko.G.i.Joe.The.Rise.of.Cobra.2009.DVDRip.XviD-MAXSPEED.vip.cshtr.com.part4.rar.html
    http://turbobit.net/cwwe2xv98lpa/CSHTR.1912.F.Tiko.G.i.Joe.The.Rise.of.Cobra.2009.DVDRip.XviD-MAXSPEED.vip.cshtr.com.part2.rar.html
    http://turbobit.net/pjmp2efk3qm1/CSHTR.1912.F.Tiko.G.i.Joe.The.Rise.of.Cobra.2009.DVDRip.XviD-MAXSPEED.vip.cshtr.com.part1.rar.html
    [/HIDE]



    [HIDE]
     
    http://www.filefactory.com/file/2bachiooza3/n/CSHTR.1912.F.Tiko.G.i.Joe.The.Rise.of.Cobra.2009.DVDRip.XviD-MAXSPEED.vip.cshtr.com.part1.rar
    http://www.filefactory.com/file/6p23vtm863fb/n/CSHTR.1912.F.Tiko.G.i.Joe.The.Rise.of.Cobra.2009.DVDRip.XviD-MAXSPEED.vip.cshtr.com.part2.rar
    http://www.filefactory.com/file/atwmjg4vntb/n/CSHTR.1912.F.Tiko.G.i.Joe.The.Rise.of.Cobra.2009.DVDRip.XviD-MAXSPEED.vip.cshtr.com.part4.rar
    http://www.filefactory.com/file/5a7d9tv71g7v/n/CSHTR.1912.F.Tiko.G.i.Joe.The.Rise.of.Cobra.2009.DVDRip.XviD-MAXSPEED.vip.cshtr.com.part3.rar
    http://www.filefactory.com/file/51eerfgv2ukv/n/CSHTR.1912.F.Tiko.G.i.Joe.The.Rise.of.Cobra.2009.DVDRip.XviD-MAXSPEED.vip.cshtr.com.part5.rar
    [/HIDE]



    [HIDE]
     
    http://www.netload.in/dateiW1eSWPJ7Fz/CSHTR.1912.F.Tiko.G.i.Joe.The.Rise.of.Cobra.2009.DVDRip.XviD-MAXSPEED.vip.cshtr.com.part1.rar.htm
    http://www.netload.in/datei53WK6geFDY/CSHTR.1912.F.Tiko.G.i.Joe.The.Rise.of.Cobra.2009.DVDRip.XviD-MAXSPEED.vip.cshtr.com.part3.rar.htm
    http://www.netload.in/datei8dmE8q3525/CSHTR.1912.F.Tiko.G.i.Joe.The.Rise.of.Cobra.2009.DVDRip.XviD-MAXSPEED.vip.cshtr.com.part4.rar.htm
    http://www.netload.in/datei9xX8ozA34M/CSHTR.1912.F.Tiko.G.i.Joe.The.Rise.of.Cobra.2009.DVDRip.XviD-MAXSPEED.vip.cshtr.com.part5.rar.htm
    http://www.netload.in/dateiYVJsfEzXu9/CSHTR.1912.F.Tiko.G.i.Joe.The.Rise.of.Cobra.2009.DVDRip.XviD-MAXSPEED.vip.cshtr.com.part2.rar.htm
    
    [/HIDE]



    [HIDE]
     
    http://uploaded.net/file/uqeo31o1/CSHTR.1912.F.Tiko.G.i.Joe.The.Rise.of.Cobra.2009.DVDRip.XviD-MAXSPEED.vip.cshtr.com.part5.rar
    http://uploaded.net/file/dizwgrd7/CSHTR.1912.F.Tiko.G.i.Joe.The.Rise.of.Cobra.2009.DVDRip.XviD-MAXSPEED.vip.cshtr.com.part4.rar
    http://uploaded.net/file/tytz0r61/CSHTR.1912.F.Tiko.G.i.Joe.The.Rise.of.Cobra.2009.DVDRip.XviD-MAXSPEED.vip.cshtr.com.part3.rar
    http://uploaded.net/file/d4v39ax7/CSHTR.1912.F.Tiko.G.i.Joe.The.Rise.of.Cobra.2009.DVDRip.XviD-MAXSPEED.vip.cshtr.com.part2.rar
    http://uploaded.net/file/bwcotx12/CSHTR.1912.F.Tiko.G.i.Joe.The.Rise.of.Cobra.2009.DVDRip.XviD-MAXSPEED.vip.cshtr.com.part1.rar
    [/HIDE]







    www.cshtr.com



  2. #111

    Standart

    güzel filme benziyor emeklerine sağlık

  3. #112

    Standart

    çok güzeldi kardeşim sağol.2sinide çekicekler sanırım öyle bitti film.onuda bekleriz

  4. #113

    Standart

    hocam linkler ölü yaw
    amazon bunu beğendi.

  5. #114

    Standart

    mechatronicer Nickli Üyeden Alıntı
    hocam linkler ölü yaw
    Konu kilit Re Upload bölümüne alınmışdır[COLOR="Red"]

  6. #115

    Bölüm Yöneticisi

    Standart

    linkler yenilendi.

Benzer Konular

  1. Cevap: 20
    Son Mesaj : 26.Aralık.2012, 10:13
  2. Cevap: 10
    Son Mesaj : 05.Ocak.2011, 14:02
  3. Cevap: 31
    Son Mesaj : 20.Aralık.2010, 01:49