emlaklik & sedatyucel

Man on the Moon | Ay'daki Adam | DVDRip | 1999 | Rapid | Download | iNDiR

Man on the Moon Ay'daki Adam DVDRip Language | Dublaj Dili : English Release Date | Gösterim Tarihi : 1999 Subtitle | Altyazı : Türkçe (Harici Altyazı) Upload By Ramone ( 22 Eylül 2009 )

Bu konu 1959 kez görüntülendi ve 7 yorum aldı ...

    Konuyu değerlendir: Man on the Moon | Ay'daki Adam | DVDRip | 1999 | Rapid | Download | iNDiR

    5 üzerinden | Toplam: 0 kişi oyladı ve 1959 kez incelendi.


Toplam 8 adet sonuctan sayfa basi 1 ile 8 arasi kadar sonuc gösteriliyor
  1. #1

    Dvdrip Man on the Moon | Ay'daki Adam | DVDRip | 1999 | Rapid | Download | iNDiR


    Man on the Moon

    Ay'daki Adam

    DVDRip

    Language | Dublaj Dili : English
    Release Date | Gösterim Tarihi : 1999
    Subtitle | Altyazı : Türkçe (Harici Altyazı)
    Upload By Ramone ( 22 Eylül 2009 )

    Uploader Notu : Türkçe altyazı rarların içinde...

    İyi seyirler..








    Man on the Moon (1999)





    Alıntı

    Tür: Komedi

    Yönetmen: Milos Formann

    Senaryo: Alexander Scott

    Oyuncular: Jim Carrey, Danny DeVito, Courtney Love, Paul Giamatti

    Konu:
    Film, 1970'lerin ünlü ve bir o kadar da garip komedyeni Andy Kaufman'ın ( Jim Carrey ) gerçek öyküsünü işliyor. Saturday Night Live şovunda bir rol alan Kaufman, George Shapiro ( Danny DeVito ) adlı bir menajerin dikkatini çeker. Shapiro, Kaufman'a kendi şovunu yapmasını teklif eder.

    Shapiro, Kaufman'ı tanımaya basladıkça onun gerçek amacının izleyiciyi güldürmek değil yaptığı şovlarla adeta şok etmek olduğunu anlar. Kaufman şovlarda canlandırdığı karakterlerle o kadar özdeşleşir ki en yakın akrabaları bile onun rol yapıp yapmadığını anlayamaz hale gelir.

    Günümüzde hala, birçok kişi Kaufman'ın hiç bir zaman gerçek anlamda anlaşılamadığını düşünmektedir.

    Eğlenceli, kışkırtıcı ve hüzünlü bir Milos Forman filmi.


    Alıntı
    Man on the moon.avi

    General
    Complete name : Man on the moon.avi
    Format : AVI
    Format/Info : Audio Video Interleave
    File size : 1.03 GiB
    Duration : 1h 53mn
    Overall bit rate : 1 298 Kbps
    Writing application : VirtualDubMod 1.5.10.2 (build 2540/release)
    Writing library : VirtualDubMod build 2540/release

    Video
    Format : MPEG-4 Visual
    Format profile : Streaming [email protected]
    Format settings, BVOP : Yes
    Format settings, QPel : No
    Format settings, GMC : 3 warppoints
    Format settings, Matrix : Custom
    Muxing mode : Packed bitstream
    Codec ID : XVID
    Codec ID/Hint : XviD
    Duration : 1h 53mn
    Bit rate : 909 Kbps
    Width : 608 pixels
    Height : 256 pixels
    Display aspect ratio : 2.35
    Frame rate : 25.000 fps
    Resolution : 24 bits
    Colorimetry : 4:2:0
    Scan type : Progressive
    Bits/(Pixel*Frame) : 0.234
    Stream size : 739 MiB (70%)
    Writing library : XviD 1.1.2 (UTC 2006-11-01)

    Audio
    Format : AC-3
    Format/Info : Audio Coding 3
    Codec ID : 2000
    Duration : 1h 53mn
    Bit rate mode : Constant
    Bit rate : 384 Kbps
    Channel(s) : 6 channels
    Channel positions : Front: L C R, Surround: L R, LFE
    Sampling rate : 48.0 KHz
    Stream size : 312 MiB (30%)
    Alignment : Aligned on interleaves
    Interleave, duration : 3837 ms (95.93 video frames)
    Interleave, preload duration : 96 ms


















    Bir Part Boyutu: 100 MB - Toplam Boyut: 1.02 GB

    [HIDE]
     
    http://rapidshare.com/files/282731318/www.cshtr.com._.MnOTMn_1999._.Ramone.part01.rar
    http://rapidshare.com/files/282953301/www.cshtr.com._.MnOTMn_1999._.Ramone.part02.rar
    http://rapidshare.com/files/282979951/www.cshtr.com._.MnOTMn_1999._.Ramone.part03.rar
    http://rapidshare.com/files/283017425/www.cshtr.com._.MnOTMn_1999._.Ramone.part04.rar
    http://rapidshare.com/files/283061302/www.cshtr.com._.MnOTMn_1999._.Ramone.part05.rar
    http://rapidshare.com/files/283118875/www.cshtr.com._.MnOTMn_1999._.Ramone.part06.rar
    http://rapidshare.com/files/283169041/www.cshtr.com._.MnOTMn_1999._.Ramone.part07.rar
    http://rapidshare.com/files/283328449/www.cshtr.com._.MnOTMn_1999._.Ramone.part08.rar
    http://rapidshare.com/files/283366005/www.cshtr.com._.MnOTMn_1999._.Ramone.part09.rar
    http://rapidshare.com/files/283392758/www.cshtr.com._.MnOTMn_1999._.Ramone.part10.rar
    http://rapidshare.com/files/283442575/www.cshtr.com._.MnOTMn_1999._.Ramone.part11.rar
    [/HIDE]





    www.cshtr.com




    Black, BuGi, eskes ve 4 kişi daha bunu beğendi.

  2. #2

    Standart

    Ellerinize sağlık Ramone çok güzel bir paylaşım olmuş. Paylaşımlarınızın devamını bekleriz.

  3. #3

    Standart

    Ellerine sağlık çok güzel paylaşım. Devamını bekliyoruz...

  4. #4

    Standart

    Ellerinize sağlık Ramone çok güzel bir paylaşım olmuş.Konu düzeni+bizim şifremizle paylaşım yapmanız çok gzl..devamini bekleriz

  5. #5

    Standart

    Nefis bir film.


    Modoratör kızmasında benimde mesajımda artamasın diye buraya yazıyorum, bu filmi bilgisayarda izlemek isteyenler indirsinler yoksa dvix oynatıcıda sorun çıkarıyor eger convert bilginiz varsa MPEG2 yapın alt yazıyı gömün çaışıyor yoksa takılarak oynuyor.

  6. #6

    Standart

    Teşekkür ederim..

  7. #7

    Standart

    Vallahi internette bu filmin ingilizce dilini aramadiğim yer kalmadi
    Tabiki türkçe forumlarda
    bi burada bulabildim
    tebrikler..

  8. #8

    Standart

    film şiddetle tavsiye edilir.mükemmel paylaşım devamını bekliyoruz

Benzer Konular

  1. Cevap: 8
    Son Mesaj : 18.Şubat.2013, 15:22
  2. Cevap: 12
    Son Mesaj : 01.Şubat.2013, 16:41
  3. Cevap: 3
    Son Mesaj : 29.Mart.2011, 09:46
  4. Bicentennial Man | Robot Adam | 1999
    Konu Sahibi Eticon Forum Portal Film
    Cevap: 0
    Son Mesaj : 06.Ocak.2011, 14:54
  5. Cevap: 1
    Son Mesaj : 06.Haziran.2010, 22:58