emlaklik & sedatyucel

Harry Potter and the Half-Blood Prince | Melez Prens | 2009 | DVDRiP XviD NeDiVx aXXo

Harry Potter and the Half-Blood Prince Harry Potter ve Melez Prens DVDRiP XviD NeDiVx - 2 CD & DVDRiP XviD aXXo - 1 CD Language | Dublaj Dili : English

Bu konu 30096 kez görüntülendi ve 145 yorum aldı ...

    Konuyu değerlendir: Harry Potter and the Half-Blood Prince | Melez Prens | 2009 | DVDRiP XviD NeDiVx aXXo

    5 üzerinden 4.00 | Toplam: 1 kişi oyladı ve 30096 kez incelendi.


Sayfa 14 Toplam 15 Sayfadan BirinciBirinci ... 4101112131415 SonuncuSonuncu
Toplam 146 adet sonuctan sayfa basi 131 ile 140 arasi kadar sonuc gösteriliyor
  1. #1

    Dvdrip Harry Potter and the Half-Blood Prince | Melez Prens | 2009 | DVDRiP XviD NeDiVx aXXo

    Harry Potter and the Half-Blood Prince

    Harry Potter ve Melez Prens

    DVDRiP XviD NeDiVx - 2 CD
    &
    DVDRiP XviD aXXo - 1 CD


    Language | Dublaj Dili : English
    Altyazı : Türkçe (içindedir.)
    Release Date | Gösterim Tarihi : 2009
    Upload By WoLVeRiNE ( 11 Ekim 2009 )








    Harry Potter and the Half-Blood Prince (2009) [7.6/10 rating]




    Alıntı

    Tür : Macera / Fantastik
    Gösterim Tarihi : 15 Temmuz 2009
    Yönetmen : David Yates
    Senaryo : Steve Kloves , J.K. Rowling (Kitap)
    Görüntü Yönetmeni : Bruno Delbonnel
    Müzik : Nicholas Hooper
    Yapım : 2008, ABD / İngiltere , 153 dk.

    Oyuncular

    Daniel Radcliffe (Harry Potter) , Rupert Grint (Ron Weasley) , Emma Watson (Hermione Granger) , Julie Walters (Molly Weasley) , Helena Bonham Carter (Bellatrix Lestrange) , Alan Rickman (Severus Snape) , Michael Gambon (Albus Dumbledore) , Maggie Smith (Minerva McGonagall) , Jim Broadbent (Horace Slughorn) , Bonnie Wright (Ginny Weasley) , Robbie Coltrane (Rubeus Hagrid)
    Harry Potter, Hogwarts'taki 6. yılında üzerinde "bu kitap Melez Prens'e aittir" yazılı bir kitap bulur.

    Kitabın içindeki büyüleri ve Melez Prens'in kimliğini araştırmaya başlayan Harry, Dumbledore'un yardımlarıyla, düşmanı Voldemort ile son savaşa girmeden önce onun geçmişi hakkında daha fazla şey öğrenmeye başlar.

    Filmin yönetmen koltuğunda Harry Potter ve Zümrüdüanka Yoldaşlığı'nı da yönetmiş olan David Yates var. Filmin uyarlandığı, J.K. Rowling'in yazdığı serinin 6. kitabı olan Harry Potter ve Melez Prens, ilk yayınlandığı gün dünya çapında tam 9 milyon satmıştı.

    Alıntı
    Video #0
    ID : 0
    Format : MPEG-4 Visual
    Format profile : [email protected]
    Format settings, BVOP : Yes
    Format settings, QPel : No
    Format settings, GMC : No warppoints
    Format settings, Matrix : Default (MPEG)
    Codec ID : XVID
    Codec ID/Hint : XviD
    Duration : 1h 8mn
    Bit rate : 1 031 Kbps
    Width : 624 pixels
    Height : 256 pixels
    Display aspect ratio : 2.40:1
    Frame rate : 25.000 fps
    Resolution : 24 bits
    Colorimetry : 4:2:0
    Scan type : Progressive
    Bits/(Pixel*Frame) : 0.258
    Stream size : 507 MiB (72%)
    Writing library : XviD 1.3.0.dev55

    Audio #1
    ID : 1
    Format : AC-3
    Format/Info : Audio Coding 3
    Codec ID : 2000
    Duration : 1h 8mn
    Bit rate mode : Constant
    Bit rate : 384 Kbps
    Channel(s) : 6 channels
    Channel positions : Front: L C R, Surround: L R, LFE
    Sampling rate : 48.0 KHz
    Stream size : 189 MiB (27%)
    Alignment : Split accross interleaves
    Interleave, duration : 40 ms (1.00 video frame)
    Interleave, preload duration : 500 ms










    Bir Part Boyutu: 200 MB - Toplam Boyut: 1.37 GB


    DVDRiP XviD NeDiVx - 2 CD
    [HIDE]
     
    http://rapidshare.com/files/291558684/www.cshtr.com_HPatHBP.DVDRiP.CD1_WoLVeRiNE.part1.rar
    http://rapidshare.com/files/291584490/www.cshtr.com_HPatHBP.DVDRiP.CD1_WoLVeRiNE.part2.rar
    http://rapidshare.com/files/291610526/www.cshtr.com_HPatHBP.DVDRiP.CD1_WoLVeRiNE.part3.rar
    http://rapidshare.com/files/291623740/www.cshtr.com_HPatHBP.DVDRiP.CD1_WoLVeRiNE.part4.rar
    http://rapidshare.com/files/291678240/www.cshtr.com_HPatHBP.DVDRiP.CD2_WoLVeRiNE.part1.rar
    http://rapidshare.com/files/291702405/www.cshtr.com_HPatHBP.DVDRiP.CD2_WoLVeRiNE.part2.rar
    http://rapidshare.com/files/291729946/www.cshtr.com_HPatHBP.DVDRiP.CD2_WoLVeRiNE.part3.rar
    http://rapidshare.com/files/291740544/www.cshtr.com_HPatHBP.DVDRiP.CD2_WoLVeRiNE.part4.rar
    [/HIDE]


    Uyumlu Alternatif Hotfile

    [HIDE][/HIDE]







    Bir Part Boyutu: 200 MB - Toplam Boyut: 911 MB

    DVDRiP XviD aXXo - 1 CD

    [HIDE]
     
    http://rapidshare.com/files/293840062/www.cshtr.com_HPatHBP.DVDRiP.aXXo_WoLVeRiNE.part1.rar
    http://rapidshare.com/files/293866537/www.cshtr.com_HPatHBP.DVDRiP.aXXo_WoLVeRiNE.part2.rar
    http://rapidshare.com/files/293893045/www.cshtr.com_HPatHBP.DVDRiP.aXXo_WoLVeRiNE.part3.rar
    http://rapidshare.com/files/293920153/www.cshtr.com_HPatHBP.DVDRiP.aXXo_WoLVeRiNE.part4.rar
    http://rapidshare.com/files/293947489/www.cshtr.com_HPatHBP.DVDRiP.aXXo_WoLVeRiNE.part5.rar
    [/HIDE]



    Uyumlu Türkçe Altyazı içindedir.





    www.cshtr.com





  2. #131

    Standart

    aliismail Nickli Üyeden Alıntı
    dfsdfdsagsdfasfd
    Arkadaşım,

    Sizi 10 Günlük Türkçe Eğitim Kursuna Yolladık Umarım Faydası olur.

  3. #132

    Standart

    teşekkürler

  4. #133

    Standart

    3 boyulusu yokmu acaba???

  5. #134

    Standart

    Ellerinize sağlık

  6. #135

    Standart

    sitede hd 720p versiyonu mevcut mu?

  7. #136

    Standart

    Teşekkür ederim beyler.

  8. #137

    Standart

    sparda Nickli Üyeden Alıntı
    sitede hd 720p versiyonu mevcut mu?
    http://www.cshtr.com/bluray-720p/385...pid-indir.html

    Buradan ulaşabilrisniz.

  9. #138

    Standart

    paylaşım için teşekkür ederim

  10. #139

    Standart

    türkçe dublajlısınız ne zaman ekleyeceksiniz dublajlısı siteye yüklenir yüklenmez indirmek istiyorum

  11. #140

    Standart

    eline sağlık üstat

Benzer Konular

  1. Cevap: 15
    Son Mesaj : 24.Ağustos.2010, 08:47
  2. Cevap: 116
    Son Mesaj : 31.Aralık.2009, 16:34
  3. Harry Potter - Half Blood Prince l Melez Prens l Trailer l HD-720p-1080p
    Konu Sahibi MeMo Forum SineKafe | Film Dizi Sohbet | Afiş Fragman
    Cevap: 13
    Son Mesaj : 20.Kasım.2009, 16:56
  4. Cevap: 67
    Son Mesaj : 18.Kasım.2009, 12:20
  5. Harry Potter and Half-Blood Prince | Melez Prens | 5.Fragman | Tr Altyazı
    Konu Sahibi [email protected] Forum SineKafe | Film Dizi Sohbet | Afiş Fragman
    Cevap: 18
    Son Mesaj : 17.Temmuz.2009, 21:50