emlaklik & sedatyucel

ROCKnROLLA | 2008 | DvDrip | Download | iNDiR

ROCKnROLLA ROCKnROLLA DvDrip Language | Dublaj Dili : English Release Date | Gösterim Tarihi : 2008 Uploaded By kuttum (17 Şubat 2013 )

Bu konu 11493 kez görüntülendi ve 85 yorum aldı ...

    Konuyu değerlendir: ROCKnROLLA | 2008 | DvDrip | Download | iNDiR

    5 üzerinden 3.50 | Toplam: 4 kişi oyladı ve 11493 kez incelendi.


Sayfa 1 Toplam 9 Sayfadan 12345 ... SonuncuSonuncu
Toplam 86 adet sonuctan sayfa basi 1 ile 10 arasi kadar sonuc gösteriliyor
  1. #1

    Dvdrip ROCKnROLLA | 2008 | DvDrip | Download | iNDiR

    ROCKnROLLA

    ROCKnROLLA

    DvDrip

    Language | Dublaj Dili : English
    Release Date | Gösterim Tarihi : 2008
    Uploaded By kuttum (17 Şubat 2013 )

    Bu paylaşımın toplam boyutu 702.19 MB olup, Turbobit Bitshare Netload Filefactory Uploaded sunucularına upload edilmiştir.

    Uploader Notu :
    Daha Hızlı indirmek ve sitemize destek olmak için Premium hesap alırken
    lütfen aşağıdaki simgeleri tıklayarak alınız. Duyarlılığınız için teşekkür ederiz.



    SÜRÜM : RocknRolla.2008.DvDrip-aXXo

    Altyazı Takip Linki : http://www.turkcealtyazi.org/mov/103...ocknrolla.html







    http://www.imdb.com/title/tt1032755/



    Alıntı

    Bir Rus gangster Londra emlak piyasasında çevirdiği bir dümenle milyonlarca sterlin kazanç sağlar. Bunu göre Londra'nın suç dünyası sakinleri bu servetten kendi paylarını almak için takibe koyulurlar. Bu karakterler içinde rock yıldızları, muhasebeciler ve daha nicesi yer almaktadır..




     
    
    ••• [FILE INFO]: ••• 
    
    File: RocknRolla.2008.DvDrip-aXXo.avi 
    Size: 736296960 bytes (702.19 MiB), duration: 01:54:16, avg.bitrate: 859 kb/s 
    Audio: mp3, 48000 Hz, stereo, 112 kb/s 
    Video: mpeg4, yuv420p, 680x278, 23.98 fps(r) 
    
    ••• [GENERAL]: ••• 
    Complete name: RocknRolla.2008.DvDrip-aXXo.avi 
    Format : AVI 
    Format/Info: Audio Video Interleave 
    File size: 702 MiB 
    Duration : 1h 54mn 
    Overall bit rate : 859 Kbps 
    Writing application: VirtualDubMod 1.5.10.1 (build 2366/release) 
    Writing library: VirtualDubMod build 2366/release 
    
    ••• [VIDEO]: ••• 
    ID : 0 
    Format : MPEG-4 Visual 
    Format profile : Advanced [email protected] 
    Format settings, BVOP: 2 
    Format settings, QPel: No 
    Format settings, GMC : No warppoints 
    Format settings, Matrix: Default (H.263) 
    Codec ID : DX50 
    Codec ID/Hint: DivX 5 
    Duration : 1h 54mn 
    Bit rate : 738 Kbps 
    Width: 680 pixels 
    Height : 278 pixels 
    Display aspect ratio : 2.40:1 
    Frame rate : 23.976 fps 
    Color space: YUV 
    Chroma subsampling : 4:2:0 
    Bit depth: 8 bits 
    Scan type: Progressive 
    Compression mode : Lossy 
    Bits/(Pixel*Frame) : 0.163 
    Stream size: 603 MiB (86%) 
    Writing library: XviD 1.0.3 (UTC 2004-12-20) 
    
    ••• [AUDIO]: ••• 
    ID : 1 
    Format : MPEG Audio 
    Format version : Version 1 
    Format profile : Layer 3 
    Codec ID : 55 
    Codec ID/Hint: MP3 
    Duration : 1h 54mn 
    Bit rate mode: Constant 
    Bit rate : 112 Kbps 
    Channel(s) : 2 channels 
    Sampling rate: 48.0 KHz 
    Compression mode : Lossy 
    Stream size: 91.5 MiB (13%) 
    Alignment: Aligned on interleaves 
    Interleave, duration : 42 ms (1.00 video frame) 
    Interleave, preload duration : 504 ms 
    
    
    
    ••• [IMDB INFO:]: ••• 
    
    Title: RocknRolla 
    Year: 2008 
    Genre: Action, Crime, Thriller 
    Rating: 7.3 (109,266 Votes) 
    Runtime: 114 min 
    Director: Guy Ritchie 
    Writer(s): Guy Ritchie 
    Cast: Gerard Butler, Tom Wilkinson, Idris Elba
    



















    Bir Part Boyutu: 299 MB - Toplam Boyut: 702.19 MB





    [HIDE]
     
    http://turbobit.net/96aq817r7owb/CSHTR.170213.F.kuttum.RocknRolla.2008.DvDrip-aXXo.vip.cshtr.com.part3.rar.html
    http://turbobit.net/fht7s9ddyaxn/CSHTR.170213.F.kuttum.RocknRolla.2008.DvDrip-aXXo.vip.cshtr.com.part2.rar.html
    http://turbobit.net/tyuqswl9lwmc/CSHTR.170213.F.kuttum.RocknRolla.2008.DvDrip-aXXo.vip.cshtr.com.part1.rar.html
    [/HIDE]



    [HIDE]
     
    http://www.filefactory.com/file/3ejqys5inie9/n/CSHTR.170213.F.kuttum.RocknRolla.2008.DvDrip-aXXo.vip.cshtr.com.part2.rar
    http://www.filefactory.com/file/2wqcl5v1nx1j/n/CSHTR.170213.F.kuttum.RocknRolla.2008.DvDrip-aXXo.vip.cshtr.com.part3.rar
    http://www.filefactory.com/file/10uyps0e73cr/n/CSHTR.170213.F.kuttum.RocknRolla.2008.DvDrip-aXXo.vip.cshtr.com.part1.rar
    [/HIDE]



    [HIDE]
     
    http://netload.in/dateikvTYPmlJfp/CSHTR.170213.F.kuttum.RocknRolla.2008.DvDrip-aXXo.vip.cshtr.com.part2.rar.htm
    http://netload.in/datei3A0Rk4sg4b/CSHTR.170213.F.kuttum.RocknRolla.2008.DvDrip-aXXo.vip.cshtr.com.part3.rar.htm
    http://netload.in/dateiZVf2kWxJ8E/CSHTR.170213.F.kuttum.RocknRolla.2008.DvDrip-aXXo.vip.cshtr.com.part1.rar.htm
    [/HIDE]



    [HIDE]
     
    http://uploaded.net/file/pqlz668s/CSHTR.170213.F.kuttum.RocknRolla.2008.DvDrip-aXXo.vip.cshtr.com.part2.rar
    http://uploaded.net/file/63vhdqhk/CSHTR.170213.F.kuttum.RocknRolla.2008.DvDrip-aXXo.vip.cshtr.com.part3.rar
    http://uploaded.net/file/ur56alrf/CSHTR.170213.F.kuttum.RocknRolla.2008.DvDrip-aXXo.vip.cshtr.com.part1.rar
    [/HIDE]



    [HIDE]
     
    http://bitshare.com/files/3hlte3rn/CSHTR.170213.F.kuttum.RocknRolla.2008.DvDrip-aXXo.vip.cshtr.com.part2.rar.html
    http://bitshare.com/files/xeytqhsi/CSHTR.170213.F.kuttum.RocknRolla.2008.DvDrip-aXXo.vip.cshtr.com.part3.rar.html
    http://bitshare.com/files/7oufea9h/CSHTR.170213.F.kuttum.RocknRolla.2008.DvDrip-aXXo.vip.cshtr.com.part1.rar.html
    [/HIDE]







    www.cshtr.com


    gangster79, juanmi, pas ve 326 kişi daha bunu beğendi.

  2. #2

    Standart

    Direk ismi dikkatimi çekti ama güzel bi filme benziyor anlaşılan eline sağlık indirip bakıcam ..

  3. #3

    Standart

    teşekkürler
    juanmi, KuNTePeR22, halga ve 9 kişi daha bunu beğendi.

  4. #4

    Standart

    teşekkürler
    juanmi, KuNTePeR22, halga ve 2 kişi daha bunu beğendi.

  5. #5

    Standart

    Altyazılı demişsiniz ama alt yazıyı rar dosyasının içinde bulamadım?
    juanmi, KuNTePeR22, halga ve 3 kişi daha bunu beğendi.

  6. #6

    Standart

    boranzi altyazı çıkınca eklenecektir.. film altyazılı olduğu için yazılmıştır..
    halga, gkltsyh ve juanmi bunu beğendi.

  7. #7

    Standart

    saol dostum
    halga, juanmi ve gkltsyh bunu beğendi.

  8. #8

    Standart

    teşekkürler sağolasın ellerinize sağlık
    juanmi ve halga bunu beğendi.

  9. #9

    Standart

    thankssss sağl dostum
    juanmi ve halga bunu beğendi.

  10. #10

    Standart

    Uyumlu Tr Altyazı eklenmiştir.. iyi seyirler!!
    juanmi, halga, hamhum ve 1 kişi daha bunu beğendi.

Benzer Konular

  1. Cevap: 40
    Son Mesaj : 18.Şubat.2013, 15:09
  2. Cevap: 53
    Son Mesaj : 18.Ocak.2013, 16:17
  3. Cevap: 90
    Son Mesaj : 27.Aralık.2012, 16:42
  4. Cevap: 47
    Son Mesaj : 22.Eylül.2010, 11:09