emlaklik & sedatyucel

Two For The Money | 2005 | DVDRip aXXo | FF NL TB | Download | iNDiR

Two For The Money "Kirli Para" DVDRip XviD-aXXo Language | Dublaj Dili : English Release Date | Gösterim Tarihi : 2005 Uploaded By Staf. Auris & aswere (09 Şubat 2013 )

Bu konu 2061 kez görüntülendi ve 10 yorum aldı ...

    Konuyu değerlendir: Two For The Money | 2005 | DVDRip aXXo | FF NL TB | Download | iNDiR

    5 üzerinden 5.00 | Toplam: 1 kişi oyladı ve 2061 kez incelendi.


Sayfa 2 Toplam 2 Sayfadan BirinciBirinci 12
Toplam 11 adet sonuctan sayfa basi 11 ile 11 arasi kadar sonuc gösteriliyor
  1. #1

    Dvdrip Two For The Money | 2005 | DVDRip aXXo | FF NL TB | Download | iNDiR

    Two For The Money

    "Kirli Para"

    DVDRip XviD-aXXo

    Language | Dublaj Dili : English
    Release Date | Gösterim Tarihi : 2005
    Uploaded By Staf. Auris & aswere (09 Şubat 2013 )

    Bu paylaşımın toplam boyutu 700 MB olup, Turbobit Netload Filefactory Uploaded sunucularına upload edilmiştir.

    Uploader Notu :
    Daha Hızlı indirmek ve sitemize destek olmak için Premium hesap alırken
    lütfen aşağıdaki simgeleri tıklayarak alınız. Duyarlılığınız için teşekkür ederiz.



    Altyazı Takip Linki : http://divxplanet.com/sub/s/46696/Tw...the-Money.html







    http://www.imdb.com/title/tt0417217/



    Alıntı

    Brandon hayatı boyunca gerçek bir sporcu olabilme hayallerinin peşinde koşmuştur. Ancak sonunda, geçirdiği sakatlık nedeniyle Vegas'ta, sadece karnını doyurabileceği kadar para kazandığı masabaşı bir iş sahibi olmuştur.

    Günün birinde çalan telefonla, ömrü boyunca teğet geçtiği spor dünyasının içine, ancak farklı bir kapıdan, davet edilir. Walter Abrams için Brandon, yetenekleri çalınmış bir sporcudan öte, gerçek bir dahi çocuktu. Spor müsabakalarının sonuçlarını kusursuz olarak tahmin edeceğine inandığı bu adamla yüksek bahisler dünyasında milyon dolarlar kazanmak o kadar da zor olamazdı.

    Pazar günleri kazanılan milyon dolarlar Pazartesileri kaybedilebilir. Kader yazı turalarla çizilebilir. Emin olunması gereken tek şey Kimin kimi aldattığıdır.


     
    
    Two.For.The.Money[2005]DvDrip[Eng]-aXXo.avi Format                           : AVI Format/Info                      : Audio Video Interleave File size                        : 700 MiB Duration                         : 1h 57mn Overall bit rate                 : 833 Kbps Writing application              : VirtualDubMod 1.5.10.1 (build 2366/release) Writing library                  : VirtualDubMod build 2366/release  Video ID                               : 0 Format                           : MPEG-4 Visual Format profile                   : Advanced [email protected] Format settings, BVOP            : 2 Format settings, QPel            : No Format settings, GMC             : No warppoints Format settings, Matrix          : Default (H.263) Codec ID                         : DX50 Codec ID/Hint                    : DivX 5 Duration                         : 1h 57mn Bit rate                         : 727 Kbps Width                            : 548 pixels Height                           : 226 pixels Display aspect ratio    
             : 2.40:1 Frame rate                       : 25.000 fps Color space                      : YUV Chroma subsampling               : 4:2:0 Bit depth                        : 8 bits Scan type                        : Progressive Compression mode                 : Lossy Bits/(Pixel*Frame)               : 0.235 Stream size                      : 611 MiB (87%) Writing library                  : XviD 1.0.3 (UTC 2004-12-20)  Audio ID                               : 1 Format                           : MPEG Audio Format version                   : Version 1 Format profile                   : Layer 3 Codec ID                         : 55 Codec ID/Hint                    : MP3 Duration                         : 1h 57mn Bit rate mode                    : Constant Bit rate                         : 96.0 Kbps Channel(s)                       : 2 channels Sampling rate                    : 48.0 KHz Compression mode                 : Lossy Stream size                      : 80.7 MiB (12%) Alignment                     
       : Aligned on interleaves Interleave, duration             : 40 ms (1.00 video frame) Interleave, preload duration     : 504 ms
    











    Bir Part Boyutu: 299 MB - Toplam Boyut: 700 MB





    [HIDE]
     
    http://turbobit.net/80osz70t4den/CSHTR.030213.F.asw.2forthmony.2005.D.cshtr.com.part1.rar.html
    http://turbobit.net/jv2m4vm5surc/CSHTR.030213.F.asw.2forthmony.2005.D.cshtr.com.part2.rar.html
    http://turbobit.net/vp3vq0tvqzxk/CSHTR.030213.F.asw.2forthmony.2005.D.cshtr.com.part3.rar.html
    [/HIDE]



    [HIDE]
     
    http://www.filefactory.com/file/416l4ijyo6gx/n/CSHTR.030213.F.asw.2forthmony.2005.D.cshtr.com.part1.rar
    http://www.filefactory.com/file/5j2bl214acqd/n/CSHTR.030213.F.asw.2forthmony.2005.D.cshtr.com.part2.rar
    http://www.filefactory.com/file/4ba3yowssyqh/n/CSHTR.030213.F.asw.2forthmony.2005.D.cshtr.com.part3.rar
    [/HIDE]



    [HIDE]
     
    http://www.netload.in/dateimmciXbozBd/CSHTR.030213.F.asw.2forthmony.2005.D.cshtr.com.part1.rar.htm
    http://www.netload.in/dateieX7xvYaeZn/CSHTR.030213.F.asw.2forthmony.2005.D.cshtr.com.part2.rar.htm
    http://www.netload.in/dateia4CShYJcjF/CSHTR.030213.F.asw.2forthmony.2005.D.cshtr.com.part3.rar.htm
    [/HIDE]



    [HIDE]
     
    http://uploaded.net/file/q4hkmmev/CSHTR.030213.F.asw.2forthmony.2005.D.cshtr.com.part3.rar
    http://uploaded.net/file/7w3yl2yy/CSHTR.030213.F.asw.2forthmony.2005.D.cshtr.com.part1.rar
    http://uploaded.net/file/i43lv86y/CSHTR.030213.F.asw.2forthmony.2005.D.cshtr.com.part2.rar
    [/HIDE]







    www.cshtr.com


    Konu Staf. Auris tarafından (09.Şubat.2013 Saat 21:39 ) değiştirilmiştir. Sebep: re-up....
    dem12, ZuZu, eFtiK ve 13 kişi daha bunu beğendi.

  2. #11

    Standart

    linkler kırık

Benzer Konular

  1. Edison | DVDRip Xvid | 2005 | Rapid Download | İNdir
    Konu Sahibi Frank Gehry Forum Film
    Cevap: 80
    Son Mesaj : 28.Aralık.2012, 16:58
  2. Cevap: 37
    Son Mesaj : 27.Aralık.2012, 16:57
  3. Cevap: 11
    Son Mesaj : 27.Aralık.2012, 16:56
  4. Cevap: 10
    Son Mesaj : 27.Aralık.2012, 16:50
  5. Thank You For Smoking | DVDRip Xvid | 2005 | Rapid Download | İNdir
    Konu Sahibi DeCCaL Forum Http Kısmı Çöp Kutusu
    Cevap: 27
    Son Mesaj : 27.Nisan.2010, 18:56