emlaklik & sedatyucel

The Emperor's Club | Imparatorlar Kulübü | 2002 | DVDRip XviD | HF FS NL | Download | iNDiR

The Emperor's Club Imparatorlar kulübü DvdRip XviD Language | Dublaj Dili : English Release Date | Gösterim Tarihi : 2002 Upload By BeBeGiM (01.12.2010 )

Bu konu 12742 kez görüntülendi ve 34 yorum aldı ...

    Konuyu değerlendir: The Emperor's Club | Imparatorlar Kulübü | 2002 | DVDRip XviD | HF FS NL | Download | iNDiR

    5 üzerinden 5.00 | Toplam: 3 kişi oyladı ve 12742 kez incelendi.


Sayfa 1 Toplam 4 Sayfadan 1234 SonuncuSonuncu
Toplam 35 adet sonuctan sayfa basi 1 ile 10 arasi kadar sonuc gösteriliyor
  1. #1

    Dvdrip The Emperor's Club | Imparatorlar Kulübü | 2002 | DVDRip XviD | HF FS NL | Download | iNDiR

    The Emperor's Club

    Imparatorlar kulübü

    DvdRip XviD

    Language | Dublaj Dili : English
    Release Date | Gösterim Tarihi : 2002
    Upload By BeBeGiM (01.12.2010 )

    Altyazı Takip Linki : http://divxplanet.com/sub/s/163884/The-Emperor-s-Club.html







    http://www.imdb.com/title/tt0283530/ [rate:6.7] 8,269 votes [rate:6.7] 8,269 votes [rate:6.7] 8,286 votes









    Alıntı

    Tür : Dram
    Gösterim Tarihi : 9 Mayıs 2003
    Yönetmen : Michael Hoffman
    Senaryo : Ethan Canin , Neil Tolkin
    Görüntü Yönetmeni : Lajos Koltai
    Müzik : James Newton Howard
    Yapım : 2002, ABD , 109 dk.

    Oyuncular

    Kevin Kline (William Hundert) , Emile Hirsch (Sedgewick Bell) , Embeth Davidtz (Elizabeth) , Rob Morrow (James Ellerby) , Edward Herrmann (Headmaster Woodbridge) , Harris Yulin (Senator Bell) , Paul Franklin Dano (Martin Blythe) , Rishi Mehta (Deepak Mehta) , Jesse Eisenberg (Louis Masoudi)
    “Her insanın yaşamında, herşeyi değiştirebilecek olan biri vardır!”

    Ethan Canin’in kısa öyküsü Palace Thief’den uyarlanmış. İlkeli ve tutkulu bir profesörün öğrencileriyle olan ilişkisini anlatıyor. Öğretmenin yaşamı, ünlü bir politikacının oğlu olan Sedgewick Bell’in sınıfa gelmesiyle, değişmeye başlar. Yıllardır deneyimlerini ve bilgisini öğrencileriyle paylaşan William Hundert, öğrencilerin kendisi üzerindeki etkilerini farkedecektir...

    Restorasyon tarzı kostümlü dramalardan tanıdığımız yönetmen Michael Hoffman tarafından çekilen film, Ölü Ozanlar Derneği ve İyilik Bul, İyilik Yap tarzı öğretmen-öğrenci ilişkisi üzerine olan filmlere benzetiliyor.


    Alıntı

    General

    Format : AVI
    Format/Info : Audio Video Interleave
    File size : 1.37 GiB
    Duration : 1h 49mn
    Overall bit rate : 1 793 Kbps
    Writing application : VirtualDubMod 1.5.4.1 (build 2178/release)
    Writing library : VirtualDubMod build 2178/release
    IAS1 : English

    Video
    Format : MPEG-4 Visual
    Format profile : Streaming [email protected]
    Format settings, BVOP : Yes
    Format settings, QPel : No
    Format settings, GMC : No warppoints
    Format settings, Matrix : Custom
    Codec ID : XVID
    Codec ID/Hint : XviD
    Duration : 1h 49mn
    Bit rate : 1 338 Kbps
    Width : 720 pixels
    Height : 384 pixels
    Display aspect ratio : 1.875
    Frame rate : 23.976 fps
    Resolution : 24 bits
    Colorimetry : 4:2:0
    Scan type : Progressive
    Bits/(Pixel*Frame) : 0.202
    Stream size : 1.02 GiB (75%)
    Writing library : XviD 1.2.0.dev47 (UTC 2006-11-01)

    Audio
    Format : AC-3
    Format/Info : Audio Coding 3
    Codec ID : 2000
    Duration : 1h 49mn
    Bit rate mode : Constant
    Bit rate : 448 Kbps
    Channel(s) : 6 channels
    Channel positions : Front: L C R, Rear: L R, LFE
    Sampling rate : 48.0 KHz
    Stream size : 350 MiB (25%)
    Alignment : Split accross interleaves
    Interleave, duration : 96 ms (2.30 video frames)
    Interleave, preload duration : 96 ms











    Bir Part Boyutu: 200 MB - Toplam Boyut: 1.37 GB






    [HIDE]
     
     http://hotfile.com/dl/86458867/e688ce1/CSHTR.The.Emperors.Club.BBGM.part1.rar.html
     http://hotfile.com/dl/86459014/9ae6589/CSHTR.The.Emperors.Club.BBGM.part2.rar.html
     http://hotfile.com/dl/86459398/57ca3e3/CSHTR.The.Emperors.Club.BBGM.part3.rar.html
     http://hotfile.com/dl/86459640/05f8c65/CSHTR.The.Emperors.Club.BBGM.part4.rar.html
    http://hotfile.com/dl/89990207/3de3a9b/CSHTR.The.Emperors.Club.BBGM.part5.rar.html
     http://hotfile.com/dl/86460934/c3d65c3/CSHTR.The.Emperors.Club.BBGM.part6.rar.html
     http://hotfile.com/dl/86461478/3c5e8db/CSHTR.The.Emperors.Club.BBGM.part7.rar.html
     http://hotfile.com/dl/86461720/3948044/CSHTR.The.Emperors.Club.BBGM.part8.rar.html
    [/HIDE]



    [HIDE]
     
     http://www.fileserve.com/file/pQYTvW9/CSHTR.The.Emperors.Club.BBGM.part1.rar
     http://www.fileserve.com/file/TnkGm3H/CSHTR.The.Emperors.Club.BBGM.part2.rar
     http://www.fileserve.com/file/HKU8pB9/CSHTR.The.Emperors.Club.BBGM.part3.rar
     http://www.fileserve.com/file/kMvm7q4/CSHTR.The.Emperors.Club.BBGM.part4.rar
     http://www.fileserve.com/file/dC5eZTV/CSHTR.The.Emperors.Club.BBGM.part5.rar
     http://www.fileserve.com/file/VDXUK4S/CSHTR.The.Emperors.Club.BBGM.part6.rar
     http://www.fileserve.com/file/fPFzCpg/CSHTR.The.Emperors.Club.BBGM.part7.rar
     http://www.fileserve.com/file/JyABZUH/CSHTR.The.Emperors.Club.BBGM.part8.rar
    [/HIDE]



    [HIDE]
     
     http://netload.in/dateiF38J8bMyMm/CSHTR.The.Emperors.Club.BBGM.part7.rar.htm
     http://netload.in/dateiLNQY0XRtCc/CSHTR.The.Emperors.Club.BBGM.part6.rar.htm
     http://netload.in/dateilLOw6lNzjF/CSHTR.The.Emperors.Club.BBGM.part5.rar.htm
     http://netload.in/datei17Gk5CR9QB/CSHTR.The.Emperors.Club.BBGM.part8.rar.htm
     http://netload.in/datei90mll2ElEG/CSHTR.The.Emperors.Club.BBGM.part4.rar.htm
     http://netload.in/dateiLPgGkgUvXw/CSHTR.The.Emperors.Club.BBGM.part3.rar.htm
     http://netload.in/dateijDOOh2igp8/CSHTR.The.Emperors.Club.BBGM.part2.rar.htm
     http://netload.in/dateirLcFDJz9J5/CSHTR.The.Emperors.Club.BBGM.part1.rar.htm
    [/HIDE]









    www.cshtr.com






    hudaw, e0bsd, inciki ve 55 kişi daha bunu beğendi.

  2. #2

    Standart

    Teşekkürler

  3. #3

    Standart

    ellerine sağlık kardeş teşekkürler
    Frank Gehry bunu beğendi.

  4. #4

    Standart

    ellerine sağlık kardeş sağol

  5. #5

    Standart

    sağolun.....

  6. #6

    Standart

    saolasınnnnnn

  7. #7

  8. #8

    Standart

    tesekkurler...

  9. #9

    Standart

    saolsaolsa

  10. #10

    Standart

    paylaşım için teşekkürler

Benzer Konular

  1. Cevap: 61
    Son Mesaj : 04.Ocak.2016, 02:46
  2. Cevap: 3
    Son Mesaj : 16.Nisan.2015, 16:31
  3. Cevap: 28
    Son Mesaj : 20.Şubat.2012, 03:17
  4. The Cotton Club | Caz Dünyası | DVDRip XViD | TR | 1984 | Rapid | Download | iNDiR
    Konu Sahibi HandSome Forum Çalışmayan Linkler | Çöp Kutusu
    Cevap: 2
    Son Mesaj : 03.Aralık.2010, 16:14