emlaklik & sedatyucel

Kalbimdeki Sesler | Music Within | 2007 | Rapidshare Download | TR | DvDRip

Music Within Kalbimdeki Sesler Language | Dublaj Dili : Türkçe Release Date | Gösterim Tarihi : 2007 Upload By drscapula ( 16 Haziran 2009 ) (Afis)

Bu konu 1907 kez görüntülendi ve 5 yorum aldı ...

    Konuyu değerlendir: Kalbimdeki Sesler | Music Within | 2007 | Rapidshare Download | TR | DvDRip

    5 üzerinden | Toplam: 0 kişi oyladı ve 1907 kez incelendi.


Toplam 6 adet sonuctan sayfa basi 1 ile 6 arasi kadar sonuc gösteriliyor
  1. #1

    Dvdrip Kalbimdeki Sesler | Music Within | 2007 | Rapidshare Download | TR | DvDRip


    Music Within

    Kalbimdeki Sesler

    Language | Dublaj Dili : Türkçe
    Release Date | Gösterim Tarihi : 2007
    Upload By drscapula ( 16 Haziran 2009 )







    Music Within (2007)





    Alıntı

    Ron Livingstone, Richard Pimentel’in inanılması zor gerçek yaşam hikayesini anlatan filmde olağanüstü bir performansla karşımıza çıkıyor.

    Vietnam savaşı sırasında kulağından yaralanan ve duyma yetisini kaybeden Richard eve döndüğünde artık başka bir misyonu olduğunu fark eder: Vietnam gazileri de dahil tüm engelli insanlara yardım etmek. Hayatını tekerlekli iskemlede geçiren en yakın arkadaşı Art’ın da (Michael Sheen) yardımıyla Richard sesini her zaman duyuramayan insanların hakları için mücadeleye etmeye başlar. Music Within hem insana ilham veren hikayesi hem de güçlü oyunculuğuyla herkesin izlemekten büyük keyif alacağı son derece başarılı bir film.

    Filmin Türü : Romantik - Komedi - Dram
    Orijinal Adı : Music Within
    Yapımcı Firma : Articulus Entertainment ve Tiglon
    Yapım Yılı : 2007
    Diller : Türkçe ve İngilizce
    Altyazı : Türkçe, İngilizce ve Diğer Avrupa Dilleri
    Filmin Süresi : 94 Dakika
    Ekran Boyutu : Geniş Ekran
    Resmi Sitesi : Music Within - In Theaters October 26
    Yönetmen : Steven Sawalich
    Senaryo : Bret McKinney, Mark Andrew Olsen ve Kelly Kennemer
    Yapımcı : Brett Donowho ve Steven Sawalich
    Görüntü Yönetmeni : Irek Hartowicz
    Kurgu : Timothy Alverson
    Film Müzikleri : James T. Sale


    Alıntı
    ideo
    Format : MPEG-4 Visual
    Format profile : Streaming [email protected]
    Format settings, BVOP : Yes
    Format settings, QPel : No
    Format settings, GMC : No warppoints
    Format settings, Matrix : Default (MPEG)
    Muxing mode : Packed bitstream
    Codec ID : XVID
    Codec ID/Hint : XviD
    Duration : 1h 29mn
    Bit rate : 913 Kbps
    Width : 640 pixels
    Height : 352 pixels
    Display aspect ratio : 16/9
    Frame rate : 25.000 fps
    Original frame rate : 23.976 fps
    Resolution : 24 bits
    Colorimetry : 4:2:0
    Scan type : Progressive
    Bits/(Pixel*Frame) : 0.162
    Stream size : 586 MiB (90%)
    Writing library : XviD 1.1.2 (UTC 2006-11-01)

    Audio
    Format : MPEG Audio
    Format version : Version 1
    Format profile : Layer 3
    Codec ID : 55
    Codec ID/Hint : MP3
    Duration : 1h 29mn
    Bit rate mode : Constant
    Bit rate : 96.0 Kbps
    Channel(s) : 2 channels
    Sampling rate : 48.0 KHz
    Resolution : 16 bits
    Stream size : 61.6 MiB (9%)
    Alignment : Aligned on interleaves
    Interleave, duration : 40 ms (1.00 video frame)
    Interleave, preload duration : 504 ms












    Bir Part Boyutu: 200 MB - Toplam Boyut: 653 MB

    [HIDE]
     
    http://rapidshare.com/files/244784994/www.cshtr.com-Kalbses-drscapula.part1.rar.html
    http://rapidshare.com/files/244804750/www.cshtr.com-Kalbses-drscapula.part2.rar.html
    http://rapidshare.com/files/244825998/www.cshtr.com-Kalbses-drscapula.part3.rar.html
    http://rapidshare.com/files/244849189/www.cshtr.com-Kalbses-drscapula.part4.rar.html
    [/HIDE]





    www.cshtr.com





  2. #2

    Standart

    teşekkür ederim sağolsaın emeğine sağlık

  3. #3

    Standart

    baya bi ödül almış bi film iyi seyirler

  4. #4

    Standart

    Link ölü ....

  5. #5

    Standart

    teşekkürler emeğine sağlık.

  6. #6

    Standart

    sitede yoktur diyordum ama bu da varmış,

Benzer Konular

  1. MAGIX Samplitude Music Studio 15| Full | Rapidshare | Download | iNDiR
    Konu Sahibi CSHTR_PRG Forum Resim, Ses ve Görüntü Programları
    Cevap: 5
    Son Mesaj : 21.Nisan.2012, 18:16
  2. Music And Lyrics | 2007 | DVDRip | HF FS NL | Download | iNDiR
    Konu Sahibi SmSdK Forum DVDRip | DVBRip Orj
    Cevap: 19
    Son Mesaj : 13.Mart.2011, 22:55
  3. Cevap: 18
    Son Mesaj : 13.Kasım.2010, 06:55
  4. Youtube Music Downloader 2.8 | 2009 | Rapidshare | Download |İndir
    Konu Sahibi Curtis Forum Dosya İndirme Programları
    Cevap: 7
    Son Mesaj : 09.Eylül.2009, 19:38
  5. Kalbimdeki Sesler | 2007 | DVDRip.XviD | Türkçe DublaJ
    Konu Sahibi canertaner Forum Çalışmayan Linkler | Çöp Kutusu
    Cevap: 0
    Son Mesaj : 30.Haziran.2009, 16:51