emlaklik & sedatyucel

Novo | DVDRip | 2002 | TR Dublaj | Rapidshare Download | iNDiR

Novo DVDRip Release Date | Gösterim Tarihi : 2002 Upload By Fuzzy ( 11 Haziran 2009 ) (Afis) http://i33.tinypic.com/25ukt5i.jpg

Bu konu 9260 kez görüntülendi ve 23 yorum aldı ...

    Konuyu değerlendir: Novo | DVDRip | 2002 | TR Dublaj | Rapidshare Download | iNDiR

    5 üzerinden | Toplam: 0 kişi oyladı ve 9260 kez incelendi.


Sayfa 2 Toplam 3 Sayfadan BirinciBirinci 123 SonuncuSonuncu
Toplam 24 adet sonuctan sayfa basi 11 ile 20 arasi kadar sonuc gösteriliyor
  1. #1

    18+ Novo | DVDRip | 2002 | TR Dublaj | Rapidshare Download | iNDiR


    Novo

    DVDRip

    Release Date | Gösterim Tarihi : 2002
    Upload By Fuzzy ( 11 Haziran 2009 )







    http://www.imdb.com/title/tt0291392/





    Alıntı

    Sürekli hafıza kaybı yaşayan Graham her şeyi çok kısa süreli olarak hatırlayabilmektedir. Bu nedenle gündelik yaşamın sıradan ilişkilerini sürdürmekte bile hayli zorlanmakta, karısını, oğlunu ve en yakın arkadaşını tanıyamaz hale gelmektedir. Fotokopi memuru olarak çalıştığı ofiste seksi patronu Sabine, onu cinsel arzularını giderebileceği bir oyuncak gibi kullanmaktadır. Bu esnada ofiste sekreter olan Irene, Graham’ın çarpıcı karizmasına dayanamaz ve Graham’I baştan çıkarmaya çalışır. Ancak bir sorun vardır: Her an yeniden doğmuşcasına boş bir zihinle yaşayan, her gördüğü kişiyi ilk kez gördüğünü sana ve her seks yaptığında bakirliğini yitirmişçesine zevk alan Graham’ın aşık olması ve tek bir kişiye bağlanması nasıl mümkün olacaktır? Onun bu durumu çevresindeki bazı insanların yaşamını çekilmez kılarken kimileri de bundan faydalanmaktadır.
    Son yılların en seksi aktörlerinden biri olarak kabul edilen, Alejandro Amenábar’ın Tez (Tesis, 1996) ve özellikle “Aç Gözünü” (“Abre los ojos”, 1997) filmleriyle yıldızı parlayan Eduardo Noriega’nın, karizmatik Fransız aktris Anna Mouglalis’yle başrolde paylaştığı ilginç bir film.


    Alıntı
    Genel
    Tam isim : Novo.2002.Dvdrip.Trdub-Orjin.avi
    Biçim : AVI
    Biçim/Info : Audio Video Interleave
    Dosya boyutu : 703 MiB
    Duration : 1s 33dk
    Kapsamlı BitOranı : 1055 Kbps
    Yapım uygulaması : VirtualDubMod 1.5.4.1 (build 2178/release)
    Yapım kütüphanesi : VirtualDubMod build 2178/release
    IAS1 : Turkish

    Görüntü
    Biçim : MPEG-4 Visual
    Format profile : Streaming [email protected]
    Format settings, BVOP : Evet
    Format settings, QPel : Hayır
    Format settings, GMC : No warpoints
    Format settings, Matrix : Custom
    Codec ID : XVID
    Codec ID/Hint : XviD
    Duration : 1s 33dk
    Bit oranı : 923 Kbps
    Genişlik : 608 piksel
    Yükseklik : 336 piksel
    En-Boy oranı : 16/9
    Kare hızı : 25.000 kare/s
    Çözünürlük : 8 bit
    Colorimetry : 4:2:0
    Scan type : Aşamalı
    Bit/(Piksel*Kare) : 0.181
    Stream size : 615 MiB
    Yapım kütüphanesi : XviD 1.2.0.dev47 (UTC 2006-11-01)

    Ses
    Biçim : MPEG Audio
    Format version : Version 1
    Format profile : Layer 3
    Codec ID : 55
    Codec ID/Hint : MP3
    Duration : 1s 33dk
    Bit oranı kipi : Variable
    Bit oranı : 120 Kbps
    Minimum bit rate : 128 Kbps
    Kanal(lar) : 2 kanal
    Örnekleme oranı : 48.0 KHz
    Çözünürlük : 16 bit
    Stream size : 79.8 MiB
    Yapım kütüphanesi : LAME3.97
    Kodlama ayarları : ABR










    Bir Part Boyutu: 200 MB

    [HIDE]
     
    Rapidshare.com
    http://rapidshare.com/files/393971084/Novo.202.TRDub.cshTR.com-Fuzzy.part1.rar
    http://rapidshare.com/files/393971879/Novo.202.TRDub.cshTR.com-Fuzzy.part2.rar
    http://rapidshare.com/files/393972040/Novo.202.TRDub.cshTR.com-Fuzzy.part3.rar
    http://rapidshare.com/files/393972204/Novo.202.TRDub.cshTR.com-Fuzzy.part4.rar
    [/HIDE]
    Not: Linkler birbiri ile uyumludur. Karışık indirebilirsiniz.

    [HIDE]
     
    Hotfile.com
    http://hotfile.com/dl/45898155/87e2666/Novo.202.TRDub.cshTR.com-Fuzzy.part1.rar.html
    http://hotfile.com/dl/45898042/1d506c2/Novo.202.TRDub.cshTR.com-Fuzzy.part2.rar.html
    http://hotfile.com/dl/45897707/942a866/Novo.202.TRDub.cshTR.com-Fuzzy.part3.rar.html
    http://hotfile.com/dl/45897539/581bf21/Novo.202.TRDub.cshTR.com-Fuzzy.part4.rar.html
    [/HIDE]
    Not: Linkler birbiri ile uyumludur. Karışık indirebilirsiniz.

    [HIDE]
     
    Uploading.com
    http://uploading.com/files/md694d7f/Novo.202.TRDub.cshTR.com-Fuzzy.part1.rar/
    http://uploading.com/files/33b92mc3/Novo.202.TRDub.cshTR.com-Fuzzy.part2.rar/
    http://uploading.com/files/mc486882/Novo.202.TRDub.cshTR.com-Fuzzy.part3.rar/
    http://uploading.com/files/4212c673/Novo.202.TRDub.cshTR.com-Fuzzy.part4.rar/
    [/HIDE]
    Not: Linkler birbiri ile uyumludur. Karışık indirebilirsiniz.

    [HIDE]
     
    Netload.in
    http://www.netload.in/dateies67gP8DHi/Novo.202.TRDub.cshTR.com-Fuzzy.part1.rar.htm
    http://www.netload.in/datei28pAg8yFrM/Novo.202.TRDub.cshTR.com-Fuzzy.part2.rar.htm
    http://www.netload.in/dateisMMFEzYcle/Novo.202.TRDub.cshTR.com-Fuzzy.part3.rar.htm
    http://www.netload.in/datei5J2LMImSQv/Novo.202.TRDub.cshTR.com-Fuzzy.part4.rar.htm
    [/HIDE]
    Not: Linkler birbiri ile uyumludur. Karışık indirebilirsiniz.






    www.cshtr.com





  2. #11

    Standart

    teşekküürler eline sağlık
    BoZGuN bunu beğendi.

  3. #12

    Standart

    Normal bir film gibi seyredilebilir.Teşekküler kardeş...

  4. #13

    Standart

    Emeğin için teşekkürler, ama zaman kaybı bir film diyebilirim.

  5. #14

    Standart

    rar şifresi ne yaaa???:K::J:J:H

  6. #15

    Standart

    www.cshtr.com

    bu rar şifresi yanlış galiba doğru şifre nedir.

  7. #16

    Standart

    teşekürler

  8. #17

    Standart Temiz Bir Kopya

    Teşekkür ederim, çok net bir kopya, dilerim konu da iyidir.
    İyi günler...

  9. #18

    Standart

    teşekkürler. eline sağlık. listeme aldım.

  10. #19

    Standart

    RAR ŞİFRESi KONUN ALTINDA YAZIYOR ARKADAŞLAR DOĞRU OLMASI GEREK BUNUN




    www.cshtr.com

  11. #20

    Standart

    Sayın Makif'inde belirttiği gibi şifre konunun altında yazıyor. Şifrede herhangi bir sorun yok

Benzer Konular

  1. Halka 1 | The Ring 1 | 2002 | DVDRip | TR Dublaj | Rapidshare | iNDiR
    Konu Sahibi halga Forum DVDRip | DVBRip DuaL-TR
    Cevap: 7
    Son Mesaj : 21.Şubat.2015, 22:54
  2. Cevap: 2
    Son Mesaj : 11.Nisan.2013, 10:05
  3. Cevap: 34
    Son Mesaj : 28.Aralık.2012, 17:40
  4. Cevap: 23
    Son Mesaj : 29.Temmuz.2010, 11:33
  5. Sekreter | 2002 | DVDRiP | TR Dublaj | Rapidshare Download | iNDiR
    Konu Sahibi nailsu Forum Yerli ve Türkçe Dublaj Filmler
    Cevap: 1
    Son Mesaj : 27.Nisan.2009, 16:51