Set.it.Off.1996.Directors.Cut. 720p.Bluray.X264-DIMENSION








 
Set.it.Off.1996.Directors.Cut.720p.Bluray.X264-DIMENSION

RLS 10.09.2009

http://www.imdb.com/title/tt0117603/
Action | Crime | Drama | Thriller
6.3/10   4,070 votes   

Four Black women, all of whom have suffered for lack of 
money and at the hands of the majority, undertake to rob 
banks... 

1280 x 528 [2.42] 23.97
2pass x264 @ 6936 kbps
English 5.1 AC3 + English Subtitles

Enjoy :)
madcow at hush dot com
Media Info
[CODE]General
Complete name : Set.it.Off.1996.Directors.Cut. 720p.Bluray.X264-DIMENSION.mkv
Format : Matroska
File size : 6.56 GiB
Duration : 2h 3mn
Overall bit rate : 7 579 Kbps
Encoded date : UTC 2009-09-10 11:13:59
Writing application : mkvmerge v2.0.0 ('After The Rain Has Fallen') built on Jan 13 2007 19:58:56
Writing library : libebml v0.7.7 + libmatroska v0.8.0

Video
ID : 1
Format : AVC
Format/Info : Advanced Video Codec
Format profile : [email protected]
Format settings, CABAC : Yes
Format settings, ReFrames : 5 frames
Muxing mode : Container [email protected]
Codec ID : V_MPEG4/ISO/AVC
Duration : 2h 3mn
Bit rate : 6 788 Kbps
Nominal bit rate : 6 936 Kbps
Width : 1 280 pixels
Height : 528 pixels
Display aspect ratio : 2.424
Frame rate : 23.976 fps
Resolution : 24 bits
Colorimetry : 4:2:0
Scan type : Progressive
Bits/(Pixel*Frame) : 0.419
Stream size : 5.87 GiB (89%)
Writing library : x264 core 75 r1251 e553a4c
Language : English

Audio
ID : 2
Format : AC-3
Format/Info : Audio Coding 3
Codec ID : A_AC3
Duration : 2h 3mn
Bit rate mode : Constant
Bit rate : 640 Kbps
Channel(s) : 6 channels
Channel positions : Front: L C R, Surround: L R, LFE
Sampling rate : 48.0 KHz
Stream size : 567 MiB (8%)
Language : English

Text
ID : 3
Format : UTF-8
Codec ID : S_TEXT/UTF8
Codec ID/Info : UTF-8 Plain Text
Language : English

Links are interchangeable


Netfolder


 
[HIDE]

http://netfolder.in/WIzPUQZ/Set.it.Off.1996.Directors.Cut.720p.Bluray.X264-DIMENSION

[/HIDE]

Interchangeable RS links

 
[HIDE]
RapidShare: 1-CLICK Web hosting - Easy Filehosting
 RapidShare: 1-CLICK Web hosting - Easy Filehosting
 RapidShare: 1-CLICK Web hosting - Easy Filehosting
 RapidShare: 1-CLICK Web hosting - Easy Filehosting
 RapidShare: 1-CLICK Web hosting - Easy Filehosting
 RapidShare: 1-CLICK Web hosting - Easy Filehosting
 RapidShare: 1-CLICK Web hosting - Easy Filehosting
 RapidShare: 1-CLICK Web hosting - Easy Filehosting
 RapidShare: 1-CLICK Web hosting - Easy Filehosting
 RapidShare: 1-CLICK Web hosting - Easy Filehosting
 RapidShare: 1-CLICK Web hosting - Easy Filehosting
 RapidShare: 1-CLICK Web hosting - Easy Filehosting
 RapidShare: 1-CLICK Web hosting - Easy Filehosting
 RapidShare: 1-CLICK Web hosting - Easy Filehosting
 RapidShare: 1-CLICK Web hosting - Easy Filehosting
 RapidShare: 1-CLICK Web hosting - Easy Filehosting
 RapidShare: 1-CLICK Web hosting - Easy Filehosting
 RapidShare: 1-CLICK Web hosting - Easy Filehosting
 RapidShare: 1-CLICK Web hosting - Easy Filehosting
 RapidShare: 1-CLICK Web hosting - Easy Filehosting
 RapidShare: 1-CLICK Web hosting - Easy Filehosting
 RapidShare: 1-CLICK Web hosting - Easy Filehosting
 RapidShare: 1-CLICK Web hosting - Easy Filehosting
 RapidShare: 1-CLICK Web hosting - Easy Filehosting
 RapidShare: 1-CLICK Web hosting - Easy Filehosting
 RapidShare: 1-CLICK Web hosting - Easy Filehosting
 RapidShare: 1-CLICK Web hosting - Easy Filehosting
 RapidShare: 1-CLICK Web hosting - Easy Filehosting
 RapidShare: 1-CLICK Web hosting - Easy Filehosting
 RapidShare: 1-CLICK Web hosting - Easy Filehosting
 RapidShare: 1-CLICK Web hosting - Easy Filehosting
 RapidShare: 1-CLICK Web hosting - Easy Filehosting
 RapidShare: 1-CLICK Web hosting - Easy Filehosting
 RapidShare: 1-CLICK Web hosting - Easy Filehosting
[/HIDE]

No password.