emlaklik & sedatyucel

Das Haus der Krokodile | Victor ve Timsah Konağının Sırrı | 2012 | TR | BRRip | Download | iNDi

Das Haus der Krokodile Victor ve Timsah Konağının Sırrı BRRip Language | Dublaj Dili : Türkçe Release Date | Gösterim Tarihi : 2012 Uploaded By Tiko (24 Ekim 2012 )

Bu konu 811 kez görüntülendi ve 2 yorum aldı ...

    Konuyu değerlendir: Das Haus der Krokodile | Victor ve Timsah Konağının Sırrı | 2012 | TR | BRRip | Download | iNDi

    5 üzerinden | Toplam: 0 kişi oyladı ve 811 kez incelendi.


Toplam 3 adet sonuctan sayfa basi 1 ile 3 arasi kadar sonuc gösteriliyor
  1. #1

    Bölüm Yöneticisi

    Brrip Das Haus der Krokodile | Victor ve Timsah Konağının Sırrı | 2012 | TR | BRRip | Download | iNDi

    Das Haus der Krokodile

    Victor ve Timsah Konağının Sırrı

    BRRip

    Language | Dublaj Dili : Türkçe
    Release Date | Gösterim Tarihi : 2012
    Uploaded By Tiko (24 Ekim 2012 )

    Bu paylaşımın toplam boyutu 700 MB olup, Turbobit Netload Filefactory Uploaded sunucularına upload edilmiştir.

    Uploader Notu :
    Daha Hızlı indirmek ve sitemize destek olmak için Premium hesap alırken
    lütfen aşağıdaki simgeleri tıklayarak alınız. Duyarlılığınız için teşekkür ederiz.









    http://www.imdb.com/title/tt2113644/



    Alıntı

    11 yaşındaki Viktor (Kristo Ferkic) ailesi ile birlikte ürkütücü bir konakta yaşamaktadır Yolculuğa çıkan anne-babası birkaç günlüğüne Viktor'u evde kızkardeşi ile birlikte yalnız bırakır Aynı günlerde Viktor evde timsaha benzeyen, içi doldurulmuş bir oyuncak ve ölmüş kuzenine ait eski bir günlük bulur Bu keşif onu akıl almaz bir maceraya sürükleyecektir.


     
    
    General
    Complete name                  : C:\Users\Tiko\Desktop\tiko\CSHTR.241012.F.Tiko.a\Victor.ve.Timsah.Konaginin.Sirri.2012.TR.BRRip.avi
    Format                         : AVI
    Format/Info                    : Audio Video Interleave
    File size                      : 698 MiB
    Duration                       : 1h 31mn
    Overall bit rate               : 1 072 Kbps
    
    Video
    ID                             : 0
    Format                         : MPEG-4 Visual
    Format profile                 : Advanced [email protected]
    Format settings, BVOP          : 2
    Format settings, QPel          : No
    Format settings, GMC           : No warppoints
    Format settings, Matrix        : Default (H.263)
    Muxing mode                    : Packed bitstream
    Codec ID                       : XVID
    Codec ID/Hint                  : XviD
    Duration                       : 1h 31mn
    Bit rate                       : 935 Kbps
    Width                          : 640 pixels
    Height                         : 272 pixels
    Display aspect ratio           : 2.35:1
    Frame rate                     : 25.000 fps
    Original frame rate            : 24.000 fps
    Color space                    : YUV
    Chroma subsampling             : 4:2:0
    Bit depth                      : 8 bits
    Scan type                      : Progressive
    Compression mode               : Lossy
    Bits/(Pixel*Frame)             : 0.215
    Stream size                    : 609 MiB (87%)
    Writing library                : XviD 64
    
    Audio
    ID                             : 1
    Format                         : AC-3
    Format/Info                    : Audio Coding 3
    Mode extension                 : CM (complete main)
    Format settings, Endianness    : Big
    Codec ID                       : 2000
    Duration                       : 1h 30mn
    Bit rate mode                  : Constant
    Bit rate                       : 128 Kbps
    Channel(s)                     : 2 channels
    Channel positions              : Front: L R
    Sampling rate                  : 48.0 KHz
    Bit depth                      : 16 bits
    Compression mode               : Lossy
    Stream size                    : 83.0 MiB (12%)
    Alignment                      : Split accross interleaves
    Interleave, duration           : 40 ms (1.00 video frame)
    Interleave, preload duration   : 500 ms
    
    













    Bir Part Boyutu: 299 MB - Toplam Boyut: 700 MB





    [HIDE]
     
    http://turbobit.net/54fkbtb6tudw/CSHTR.241012.F.Tiko.Victor.ve.Timsah.Konaginin.Sirri.2012.TR.BRRip.vip.cshtr.com.part1.rar.html
    http://turbobit.net/f1hrvenjwkf7/CSHTR.241012.F.Tiko.Victor.ve.Timsah.Konaginin.Sirri.2012.TR.BRRip.vip.cshtr.com.part2.rar.html
    http://turbobit.net/wtgky9sv77du/CSHTR.241012.F.Tiko.Victor.ve.Timsah.Konaginin.Sirri.2012.TR.BRRip.vip.cshtr.com.part3.rar.html
    [/HIDE]



    [HIDE]
     
    http://www.filefactory.com/file/2vjb1icemw31/n/CSHTR.241012.F.Tiko.Victor.ve.Timsah.Konaginin.Sirri.2012.TR.BRRip.vip.cshtr.com.part2.rar
    http://www.filefactory.com/file/7ldc41pi46az/n/CSHTR.241012.F.Tiko.Victor.ve.Timsah.Konaginin.Sirri.2012.TR.BRRip.vip.cshtr.com.part1.rar
    http://www.filefactory.com/file/2f16frfqkk1d/n/CSHTR.241012.F.Tiko.Victor.ve.Timsah.Konaginin.Sirri.2012.TR.BRRip.vip.cshtr.com.part3.rar
    [/HIDE]



    [HIDE]
     
    http://www.netload.in/datei1f6X3ZALfZ/CSHTR.241012.F.Tiko.Victor.ve.Timsah.Konaginin.Sirri.2012.TR.BRRip.vip.cshtr.com.part3.rar.htm
    http://www.netload.in/dateiGhkeFamnUN/CSHTR.241012.F.Tiko.Victor.ve.Timsah.Konaginin.Sirri.2012.TR.BRRip.vip.cshtr.com.part1.rar.htm
    http://www.netload.in/datei0qjco7aTeM/CSHTR.241012.F.Tiko.Victor.ve.Timsah.Konaginin.Sirri.2012.TR.BRRip.vip.cshtr.com.part2.rar.htm
    
    [/HIDE]



    [HIDE]
     
    http://uploaded.net/file/787qybt2/CSHTR.241012.F.Tiko.Victor.ve.Timsah.Konaginin.Sirri.2012.TR.BRRip.vip.cshtr.com.part2.rar
    http://uploaded.net/file/dm8nuw0v/CSHTR.241012.F.Tiko.Victor.ve.Timsah.Konaginin.Sirri.2012.TR.BRRip.vip.cshtr.com.part3.rar
    http://uploaded.net/file/53lt1z6c/CSHTR.241012.F.Tiko.Victor.ve.Timsah.Konaginin.Sirri.2012.TR.BRRip.vip.cshtr.com.part1.rar
    [/HIDE]







    www.cshtr.com


    signature bunu beğendi.

  2. #2

    Bölüm Yöneticisi

    Standart

    linkler eklendi

  3. #3

    Standart

    Teşekkürler