emlaklik & sedatyucel

Aslı ile Kerem | Tüm Bölümleri | 2002 | MP4 | FSC | Download | iNDiR

Aslı ile Kerem Tüm Bölümleri MP4 Language | Dublaj Dili : Türkçe Release Date | Gösterim Tarihi : 2002 Bu paylaşımın toplam boyutu 4,72 GB olup, Filesonic Wupload sunucularına upload edilmiştir.

Bu konu 3465 kez görüntülendi ve 4 yorum aldı ...

    Konuyu değerlendir: Aslı ile Kerem | Tüm Bölümleri | 2002 | MP4 | FSC | Download | iNDiR

    5 üzerinden | Toplam: 0 kişi oyladı ve 3465 kez incelendi.


Toplam 5 adet sonuctan sayfa basi 1 ile 5 arasi kadar sonuc gösteriliyor
  1. #1

    Dvbrip Aslı ile Kerem | Tüm Bölümleri | 2002 | MP4 | FSC | Download | iNDiR

    Aslı ile Kerem

    Tüm Bölümleri

    MP4

    Language | Dublaj Dili : Türkçe
    Release Date | Gösterim Tarihi : 2002
    Bu paylaşımın toplam boyutu 4,72 GB olup, Filesonic Wupload sunucularına upload edilmiştir.

    Uploader Notu : Upload devam ediyor. Her Bölüm 8'er dakikalık 5 parçadan oluşuyor. Alternatifler bütün bölümler tamamlanınca yüklenecektir. İyi Seyirler...







    http://www.imdb.com/title/tt0438689/



    Alıntı

    Yapım: 2002 - Türkiye
    Tür: Aile, Komedi,
    Yönetmen: Bora Tekay,
    Oyuncular: Demet Evgar, Ozan Güven, Şebnem Dönmez, İlker Ayrık, Lemi Filozof, Yıldırım Öcek, Yurdaer Okur, Alev Oraloğlu, Oğuz Oktay, Ruhsar Gültekin, Nami Esatgil, Argun Kınal,
    Senaryo: Ömer Pınar,

    Özet:
    Kerem çok zengin bir ailenin iyi eğitim almış tek oğludur. Babasının sahip olduğu holdingin genel müdürlüğünü yapmaktadır. Aslı ise, orta halli işçi emeklisi bir babanın kızıdır. Aslı ile Kerem ilk görüşte aşık olurlar ve bir hafta içinde ailelerindin habersiz evlenirler. Aslı'nın devrimci babası Salak Muzaffer kızının bir holding sahibiyle evlenmesine, Kerem'in sosyetik annesi Leopar Perihan ise biricik oğlunu sıradan bir kıza kaptırmış olmasına yüksek sesle tepki verirler. Birbirlerinden çok farklı kültürlerde ve ortamlarda yetişmiş bu iki gencin ortak noktada buluşmaya çalışmaları çok ilginç ve komik olaylara neden olacaktır...


     
    
    Video
    ID                                       : 1
    Format                                   : AVC
    Format/Info                              : Advanced Video Codec
    Format profile                           : [email protected]
    Format settings, CABAC                   : Yes
    Format settings, ReFrames                : 2 frames
    Codec ID                                 : avc1
    Codec ID/Info                            : Advanced Video Coding
    Duration                                 : 7mn 3s
    Bit rate mode                            : Variable
    Bit rate                                 : 390 Kbps
    Width                                    : 960 pixels
    Height                                   : 720 pixels
    Display aspect ratio                     : 4:3
    Frame rate mode                          : Constant
    Frame rate                               : 20.000 fps
    Color space                              : YUV
    Chroma subsampling                       : 4:2:0
    Bit depth                                : 8 bits
    Scan type                                : Progressive
    Bits/(Pixel*Frame)                       : 0.028
    Stream size                              : 19.6 MiB (79%)
    
    Audio
    ID                                       : 2
    Format                                   : AAC
    Format/Info                              : Advanced Audio Codec
    Format profile                           : LC
    Codec ID                                 : 40
    Duration                                 : 7mn 2s
    Bit rate mode                            : Variable
    Bit rate                                 : 96.0 Kbps
    Channel(s)                               : 2 channels
    Channel positions                        : Front: L R
    Sampling rate                            : 44.1 KHz
    Compression mode                         : Lossy
    Stream size                              : 4.84 MiB (20%)
    
    










    Bir Part Boyutu: 180 MB - Toplam Boyut: 4,72 GB





    [HIDE]
     
    Bölüm 1
    http://www.filesonic.com/file/3898516095
    Bölüm 2
    http://www.filesonic.com/file/3896906255
    Bölüm 3
    http://www.filesonic.com/file/3899015325
    Bölüm 4
    http://www.filesonic.com/file/3901450675
    Bölüm 5
    http://www.filesonic.com/file/3913375205
    Bölüm 6
    http://www.filesonic.com/file/3917356015
    Bölüm 7
    http://www.filesonic.com/file/3917262275
    Bölüm 8
    http://www.filesonic.com/file/3919362595
    Bölüm 9
    http://www.filesonic.com/file/3922968405
    Bölüm 10
    http://www.filesonic.com/file/3925298275
    Bölüm 11
    http://www.filesonic.com/file/3926269865
    Bölüm 12
    http://www.filesonic.com/file/3926973465
    Bölüm 13
    http://www.filesonic.com/file/3931175575
    Bölüm 14
    http://www.filesonic.com/file/3931354195
    Bölüm 15
    http://www.filesonic.com/file/3941574324
    Bölüm 16
    http://www.filesonic.com/file/3942219914
    Bölüm 17
    http://www.filesonic.com/file/3942748944
    Bölüm 18 - 3. Bölüm Yoktur
    http://www.filesonic.com/file/3942872214
    Bölüm 19
    http://www.filesonic.com/file/3943575574
    Bölüm 20
    http://www.filesonic.com/file/3943695964
    Bölüm 21
    http://www.filesonic.com/file/3944821874
    Bölüm 22
    http://www.filesonic.com/file/3944817254
    Bölüm 23
    http://www.filesonic.com/file/3949721484
    Bölüm 24
    http://www.filesonic.com/file/3950243504
    Bölüm 25
    http://www.filesonic.com/file/3950309684
    Bölüm 26
    http://www.filesonic.com/file/3952047434
    Bölüm 27
    http://www.filesonic.com/file/3952069694
    Bölüm 28
    http://www.filesonic.com/file/3950843364
    Bölüm 29
    http://www.filesonic.com/file/3951043034
    [/HIDE]



    [HIDE]
     
    Bölüm 1
    http://www.wupload.com/file/2329514212
    Bölüm 2
    http://www.wupload.com/file/2329472137
    Bölüm 3
    http://www.wupload.com/file/2329891297
    Bölüm 4
    http://www.wupload.com/file/2330146032
    Bölüm 5
    http://www.wupload.com/file/2330311642
    Bölüm 6
    http://www.wupload.com/file/2391312132
    Bölüm 7
    http://www.wupload.com/file/2391311717
    Bölüm 8
    http://www.wupload.com/file/2519625322
    Bölüm 9
    http://www.wupload.com/file/2520177072
    Bölüm 10
    http://www.wupload.com/file/2521895147
    Bölüm 11
    http://www.wupload.com/file/2522403717
    Bölüm 12
    http://www.wupload.com/file/2520762197
    Bölüm 13
    http://www.wupload.com/file/2522418452
    Bölüm 14
    http://www.wupload.com/file/2521971862
    Bölüm 15
    http://www.wupload.com/file/2522728507
    Bölüm 16
    http://www.wupload.com/file/2524231352
    Bölüm 17
    http://www.wupload.com/file/2525266417
    
    Upload Devam Etmektedir
    [/HIDE]







    www.cshtr.com



  2. #2

    Standart

    Bütün bölümler Filesonic te tamamlanmıştır. Wupload server sıkıntısı geçince diğer partlar da eklenecektir. İyi seyirler

  3. #3

  4. #4

    Standart istek

    kardeş filesonic linkleri silinmiş yenilermisin 17.bölümden sonrakileri?

  5. #5

    Standart

    filesonic kapandı artık bir halt olmaz sen rapid hotfile veya megaupload olarak yükle tekrar 17.ci den sonrakileri
    erciyes_55 bunu beğendi.