emlaklik & sedatyucel

The Borgias | 1. Sezon | 2011 | HDTV | FSC | Download | iNDiR

The Borgias 1. Sezon HDTV Language | Dublaj Dili : English Release Date | Gösterim Tarihi : 2011 Subtitle | Altyazı : Türkçe (Pakette) Bu paylaşımın toplam boyutu 4,24 GB olup, Filesonic sunucularına upload edilmiştir.

Bu konu 10229 kez görüntülendi ve 3 yorum aldı ...

    Konuyu değerlendir: The Borgias | 1. Sezon | 2011 | HDTV | FSC | Download | iNDiR

    5 üzerinden | Toplam: 0 kişi oyladı ve 10229 kez incelendi.


Toplam 4 adet sonuctan sayfa basi 1 ile 4 arasi kadar sonuc gösteriliyor
  1. #1

    Hdtv The Borgias | 1. Sezon | 2011 | HDTV | FSC | Download | iNDiR

    The Borgias

    1. Sezon

    HDTV

    Language | Dublaj Dili : English
    Release Date | Gösterim Tarihi : 2011
    Subtitle | Altyazı : Türkçe (Pakette)
    Bu paylaşımın toplam boyutu 4,24 GB olup, Filesonic sunucularına upload edilmiştir.

    Uploader Notu : İyi Seyirler.







    http://www.imdb.com/title/tt1582457/



    Alıntı

    Bilgi :
    Tarihi dizi Camelot‘un yazarı Michael Hirst‘in ortak projesi olan bir dizi The Borgias...
    The Tudors'ın İtalya şubesi de denilebilir bu diziye. Oscar ödüllü oyuncu Jeremy Irons'ın başrolünde yer aldığı bu tarihi dizi; 1492 İtalya'sında geçiyor. Piskopos Rodrigo Borgia tarafından yönetilen suç ailesi Borgia Hanedanı'nı anlatıyor.
    Projenin başında Tudors yazarı Michael Hirst varken; diğer rollerde ise David Oakes ve Derek Jacobi gibi isimler var.
    Birçok tarihi yapım gibi The Borgias da oldukça etkileyici ve Showtime kanalında yayınlanıyor.

    Cast
    Series cast summary:
    Jeremy Irons Jeremy Irons ...
    Rodrigo Borgia (9 episodes, 2011)
    François Arnaud François Arnaud ...
    Cesare Borgia (9 episodes, 2011)
    Holliday Grainger Holliday Grainger ...
    Lucrezia Borgia (9 episodes, 2011)
    Lotte Verbeek Lotte Verbeek ...
    Giulia Farnese (9 episodes, 2011)
    David Oakes David Oakes ...
    Juan Borgia (9 episodes, 2011)
    Colm Feore Colm Feore ...
    Giuliano Della Rovere (9 episodes, 2011)
    Peter Sullivan Peter Sullivan ...
    Cardinal Ascanio Sforza (9 episodes, 2011)


     
    
    Format                                   : AVI
    Format/Info                              : Audio Video Interleave
    File size                                : 550 MiB
    Duration                                 : 50mn 22s
    Overall bit rate mode                    : Variable
    Overall bit rate                         : 1 527 Kbps
    Writing application                      : transcode-1.0.4
    
    Video
    ID                                       : 0
    Format                                   : MPEG-4 Visual
    Format profile                           : Advanced [email protected]
    Format settings, BVOP                    : 2
    Format settings, QPel                    : No
    Format settings, GMC                     : No warppoints
    Format settings, Matrix                  : Default (H.263)
    Codec ID                                 : XVID
    Codec ID/Hint                            : XviD
    Duration                                 : 50mn 22s
    Bit rate                                 : 1 364 Kbps
    Width                                    : 624 pixels
    Height                                   : 352 pixels
    Display aspect ratio                     : 16:9
    Frame rate                               : 23.976 fps
    Color space                              : YUV
    Chroma subsampling                       : 4:2:0
    Bit depth                                : 8 bits
    Scan type                                : Progressive
    Compression mode                         : Lossy
    Bits/(Pixel*Frame)                       : 0.259
    Stream size                              : 492 MiB (89%)
    Writing library                          : XviD 1.2.1 (UTC 2008-12-04)
    
    Audio
    ID                                       : 1
    Format                                   : MPEG Audio
    Format version                           : Version 1
    Format profile                           : Layer 3
    Codec ID                                 : 55
    Codec ID/Hint                            : MP3
    Duration                                 : 50mn 22s
    Bit rate mode                            : Variable
    Bit rate                                 : 128 Kbps
    Channel(s)                               : 2 channels
    Sampling rate                            : 48.0 KHz
    Compression mode                         : Lossy
    Stream size                              : 54.1 MiB (10%)
    Alignment                                : Aligned on interleaves
    Interleave, duration                     : 24 ms (0.58 video frame)
    



















    Bir Part Boyutu: 550 MB - Toplam Boyut: 4,24 GB





    [HIDE]
     
    S01E01-02 - The Poisoned Chalice - The Assassin
    http://www.filesonic.com/file/3962517244
    S01E03 - The Moor
    http://www.filesonic.com/file/3964504484
    S01E04 - Lucrezia's Wedding
    http://www.filesonic.com/file/3964789214
    S01E05 - The Borgias In Love.rar
    http://www.filesonic.com/file/3966341004
    S01E06 - The French King.rar
    http://www.filesonic.com/file/3966676314
    S01E07 - Death, On A Pale Horse
    http://www.filesonic.com/file/3968107314
    S01E08 - The Art Of War
    http://www.filesonic.com/file/3971727474
    S01E09 - Nessuno (Nobody)
    http://www.filesonic.com/file/3971810404
    [/HIDE]





    www.cshtr.com


    akdeniz1976, badmantr ve dcooker bunu beğendi.

  2. #2

    Standart

    1. sezon bütün bölümler tamamlanmıştır. 2. sezon 2012 de, iyi seyirler

  3. #3

    Ts

    iyi güzelde 400 mb üstü free indiremiyoruz. premium hesap mı alacağız. (

  4. #4

    Standart

    Dosyalar silinmiş....