Gittigidiyor Reklam

Harold & Kumar Escape from Guantanamo Bay | DVDRip XviD aXXo | 2008 | HF NL | Downloa

Harold & Kumar Escape from Guantanamo Bay DVDRip XviD aXXo Language | Dublaj Dili : English Release Date | Gösterim Tarihi : 2008 Upload By abugras ( 27 Eylül 2010 ) Uploader Notu : İyi seyirler...

Bu konu 839 kez görüntülendi ve 3 yorum aldı ...

    Konuyu değerlendir: Harold & Kumar Escape from Guantanamo Bay | DVDRip XviD aXXo | 2008 | HF NL | Downloa

    5 üzerinden | Toplam: 0 kişi oyladı ve 839 kez incelendi.


Toplam 4 adet sonuctan sayfa basi 1 ile 4 arasi kadar sonuc gösteriliyor
  1. #1

    Dvdrip Harold & Kumar Escape from Guantanamo Bay | DVDRip XviD aXXo | 2008 | HF NL | Downloa


    Harold & Kumar Escape from Guantanamo Bay

    DVDRip XviD aXXo

    Language | Dublaj Dili : English
    Release Date | Gösterim Tarihi : 2008
    Upload By abugras ( 27 Eylül 2010 )

    Uploader Notu : İyi seyirler...







    http://vip.cshtr.com/redirect-to/?re...2Ftt0481536%2F





    Alıntı
    General

    Format : AVI
    Format/Info : Audio Video Interleave
    File size : 702 MiB
    Duration : 1h 47mn
    Overall bit rate : 910 Kbps
    Writing application : VirtualDubMod 1.5.10.1 (build 2366/release)
    Writing library : VirtualDubMod build 2366/release

    Video
    ID : 0
    Format : MPEG-4 Visual
    Format profile : Advanced [email protected]
    Format settings, BVOP : Yes
    Format settings, QPel : No
    Format settings, GMC : No warppoints
    Format settings, Matrix : Default (H.263)
    Codec ID : DX50
    Codec ID/Hint : DivX 5
    Duration : 1h 47mn
    Bit rate : 789 Kbps
    Width : 628 pixels
    Height : 334 pixels
    Display aspect ratio : 1.880
    Frame rate : 23.976 fps
    Color space : YUV
    Chroma subsampling : 4:2:0
    Bit depth : 8 bits
    Scan type : Progressive
    Bits/(Pixel*Frame) : 0.157
    Stream size : 608 MiB (87%)
    Writing library : XviD 1.0.3 (UTC 2004-12-20)

    Audio
    ID : 1
    Format : MPEG Audio
    Format version : Version 1
    Format profile : Layer 3
    Codec ID : 55
    Codec ID/Hint : MP3
    Duration : 1h 47mn
    Bit rate mode : Constant
    Bit rate : 112 Kbps
    Channel(s) : 2 channels
    Sampling rate : 48.0 KHz
    Stream size : 86.3 MiB (12%)
    Alignment : Aligned on interleaves
    Interleave, duration : 42 ms (1.00 video frame)
    Interleave, preload duration : 504 ms











    Bir Part Boyutu: **???** - Toplam Boyut: **???**

    [HIDE]
     
    Hotfile
    http://hotfile.com/dl/70112742/a1f4606/Harold.Kumar-Escape.From.Guantanamo.Bay.2008.vip.cshtr.com.part1.rar.html
    http://hotfile.com/dl/70112888/c92c022/Harold.Kumar-Escape.From.Guantanamo.Bay.2008.vip.cshtr.com.part2.rar.html
    http://hotfile.com/dl/70113586/18145b0/Harold.Kumar-Escape.From.Guantanamo.Bay.2008.vip.cshtr.com.part3.rar.html
    http://hotfile.com/dl/70113617/3e8c020/Harold.Kumar-Escape.From.Guantanamo.Bay.2008.vip.cshtr.com.part4.rar.html
    
    
    Netload
    http://www.netload.in/dateizUEgd9RfVm/Harold.Kumar-Escape.From.Guantanamo.Bay.2008.vip.cshtr.com.part1.rar.htm
    http://www.netload.in/dateiWqeXjRO6BB/Harold.Kumar-Escape.From.Guantanamo.Bay.2008.vip.cshtr.com.part2.rar.htm
    http://www.netload.in/dateiYFvhdVhHIm/Harold.Kumar-Escape.From.Guantanamo.Bay.2008.vip.cshtr.com.part3.rar.htm
    http://www.netload.in/dateiNqFA4wZ8TR/Harold.Kumar-Escape.From.Guantanamo.Bay.2008.vip.cshtr.com.part4.rar.htm
    [/HIDE]





    www.cshtr.com




    adam520, emrekamp ve yavuz68 bunu beğendi.

  2. #2

    Standart

    Teşekkürler

  3. #3

    Standart

    tüm linkler ölü

  4. #4

    Standart

    konu kilit reupa taşınmıştır. En kısa zamanda yenilenecektir

Benzer Konular

  1. Babylon A.D. | Babil M.S. | 2008 | DVDRip | FF NL TB | Download | iNDiR
    Konu Sahibi Staf. Auris Forum DVDRip | DVBRip Orj
    Cevap: 63
    Son Mesaj : 14.Ocak.2013, 13:58
  2. Cevap: 1
    Son Mesaj : 03.Ekim.2011, 19:32
  3. Cevap: 35
    Son Mesaj : 25.Ağustos.2011, 02:19
  4. Wanted | 2008 | DVDRip XviD-aXXo | HF FS NL | Download | iNDiR
    Konu Sahibi aswere Forum DVDRip | DVBRip Orj
    Cevap: 159
    Son Mesaj : 06.Haziran.2011, 11:36
  5. Harold | DvdRip | 2008 | Rapidshare Download | iNDiR
    Konu Sahibi Kont Vlad Forum Çalışmayan Linkler | Çöp Kutusu
    Cevap: 6
    Son Mesaj : 10.Ekim.2008, 11:23