Gittigidiyor Reklam

Chevolution | 2008 | DVDRip XviD SPRiNTER | 4 Alternatif | Download | iNDiR

Chevolution DVDRip XviD-SPRiNTER Language | Dublaj Dili : Spanish Release Date | Gösterim Tarihi : 2008 Upload By MetaLyuM ( 27 Ocak 2010 ) Uploader Notu : Türkçe Altyazı çıkınca konuya eklenecektir. İyi Seyirler..

Bu konu 1781 kez görüntülendi ve 7 yorum aldı ...

    Konuyu değerlendir: Chevolution | 2008 | DVDRip XviD SPRiNTER | 4 Alternatif | Download | iNDiR

    5 üzerinden | Toplam: 0 kişi oyladı ve 1781 kez incelendi.


Toplam 8 adet sonuctan sayfa basi 1 ile 8 arasi kadar sonuc gösteriliyor
  1. #1

    Dvdrip Chevolution | 2008 | DVDRip XviD SPRiNTER | 4 Alternatif | Download | iNDiR


    Chevolution

    DVDRip XviD-SPRiNTER

    Language | Dublaj Dili : Spanish
    Release Date | Gösterim Tarihi : 2008
    Upload By MetaLyuM ( 27 Ocak 2010 )

    Uploader Notu : Türkçe Altyazı çıkınca konuya eklenecektir.
    İyi Seyirler..








    http://www.imdb.com/title/tt1202160/





    Alıntı

    Tür: Documentary
    Ülke: Mexico
    Dil: Spanish,English
    Konu: A documentary on the iconography of Che Guevara. |
    Puan: 4.5/10 (202 oy)
    Süre: 86 min
    Oyuncular (ilk 5): Gerry Adams, Antonio Banderas, Gael García Bernal, Ernesto 'Che' Guevara, Tom Morello

    Bilgi;

    Belgeselde, 1960 yılında bir mitingde Alberto Korda tarafından çekilen ünlü fotoğrafın tarihi ve yaklaşık 50 yıllık süreçte anlamının nasıl değiştiği anlatılıyor.


    Alıntı
    Release notes:

    Enjoy!

    Format : AVI
    Format/Info : Audio Video Interleave
    File size : 700 MiB
    Duration : 1h 29mn
    Overall bit rate : 1 095 Kbps
    Writing application : VirtualDubMod 1.5.10.2 (build 2540/release)
    Writing library : VirtualDubMod build 2540/release

    Video
    ID : 0
    Format : MPEG-4 Visual
    Format profile : [email protected]
    Format settings, BVOP : Yes
    Format settings, QPel : No
    Format settings, GMC : No warppoints
    Format settings, Matrix : Default (H.263)
    Codec ID : XVID
    Codec ID/Hint : XviD
    Duration : 1h 29mn
    Bit rate : 953 Kbps
    Width : 640 pixels
    Height : 352 pixels
    Display aspect ratio : 16:9
    Frame rate : 23.976 fps
    Resolution : 24 bits
    Colorimetry : 4:2:0
    Scan type : Progressive
    Bits/(Pixel*Frame) : 0.176
    Stream size : 609 MiB (87%)
    Writing library : XviD 1.2.1 (UTC 2008-12-04)

    Audio
    ID : 1
    Format : MPEG Audio
    Format version : Version 1
    Format profile : Layer 3
    Format_Settings_Mode : Joint stereo / MS Stereo
    Codec ID : 55
    Codec ID/Hint : MP3
    Duration : 1h 29mn
    Bit rate mode : Variable
    Bit rate : 130 Kbps
    Nominal bit rate : 128 Kbps
    Channel(s) : 2 channels
    Sampling rate : 48.0 KHz
    Resolution : 16 bits
    Stream size : 82.8 MiB (12%)
    Alignment : Aligned on interleaves
    Interleave, duration : 24 ms (0.58 video frame)
    Interleave, preload duration : 142 ms
    Writing library : LAME3.90.
    Encoding settings : -m j -V 4 -q 2 -lowpass 17.6 --abr 128










    Bir Part Boyutu: 199 MB - Toplam Boyut: 700 MB

    (rapidshare)

    [HIDE]
     
    http://rapidshare.com/files/341554478/sprinter-chev.dvdrip.2008.CSHTR_MetaLyuM.part1.rar
    http://rapidshare.com/files/341554477/sprinter-chev.dvdrip.2008.CSHTR_MetaLyuM.part2.rar
    http://rapidshare.com/files/341554481/sprinter-chev.dvdrip.2008.CSHTR_MetaLyuM.part3.rar
    http://rapidshare.com/files/341554480/sprinter-chev.dvdrip.2008.CSHTR_MetaLyuM.part4.rar
    [/HIDE]

    (hotfile)


    http://hotfile.com/dl/25888869/c7a5b...part1.rar.html
    http://hotfile.com/dl/25888870/fbd68...part2.rar.html
    http://hotfile.com/dl/25889410/75f12...part3.rar.html
    http://hotfile.com/dl/25889416/56dff...part4.rar.html


    Uploaded.To

    [HIDE]
     
    http://ul.to/wi0np3
    http://uploaded.to/file/my5s8q
    http://ul.to/9rbkzd
    http://ul.to/uonq14
    [/HIDE]

    DuckLoaD

    [HIDE]
     
    http://duckload.com/download/345436/sprinter-chev.dvdrip.2008.CSHTR_MetaLyuM.part1.rar
    http://duckload.com/download/345454/sprinter-chev.dvdrip.2008.CSHTR_MetaLyuM.part2.rar
    http://duckload.com/download/345461/sprinter-chev.dvdrip.2008.CSHTR_MetaLyuM.part3.rar
    http://duckload.com/download/345482/sprinter-chev.dvdrip.2008.CSHTR_MetaLyuM.part4.rar
    [/HIDE]





    www.cshtr.com




    Algun, geompac, gamadam ve 2 kişi daha bunu beğendi.

  2. #2

    Standart

    Ben bu filmi bir aralar istemiştim de o zamanlar bulamamıştık Şimdi karşıma çıkması çok güzel oldu. Teşekkürler upload için. Güzel bir belgesel olduğunu duymuştum.

  3. #3

    Standart

    Alternatif yağmuru mu var yoksa Ellerine sağlık Metalim

  4. #4

    Standart

    slm uyumlu bir alt yazı çıkmadımı acaba eğer bir bilgi verirseniz sevinirim teşekkürler şimdiden

  5. #5

    Standart

    linkler bozuk arkadaşlar.silinmişler

  6. #6

    Standart

    reup/film bölümüne taşınmıştır

  7. #7

    Standart

    teşekkürler

  8. #8

    Standart

    güzel bi belgesel izlemeye değer.

Benzer Konular

  1. Cevap: 1
    Son Mesaj : 03.Ocak.2013, 00:55
  2. Cevap: 6
    Son Mesaj : 23.Şubat.2011, 20:31
  3. Cevap: 4
    Son Mesaj : 18.Ağustos.2010, 18:15
  4. Meadowoods (2010) | DVDRip XViD-SPRiNTER | 5 Alternatif | Download | iNDiR
    Konu Sahibi Eticon Forum DVDRip | DVBRip DuaL-TR
    Cevap: 1
    Son Mesaj : 29.Haziran.2010, 10:21
  5. Cevap: 1
    Son Mesaj : 26.Haziran.2010, 23:05