Gittigidiyor Reklam

Get Smart | Akıllı Ol | 720p BluRay DUAL ARENA | 2008 | Rapid | Download | iNDiR

Get Smart Akıllı Ol 720p BluRay DUAL ARENA Language | Dublaj Dili : Türkçe Release Date | Gösterim Tarihi : 2008 Upload By HandSome ( 11 Ağustos 2009 )

Bu konu 2469 kez görüntülendi ve 8 yorum aldı ...

    Konuyu değerlendir: Get Smart | Akıllı Ol | 720p BluRay DUAL ARENA | 2008 | Rapid | Download | iNDiR

    5 üzerinden | Toplam: 0 kişi oyladı ve 2469 kez incelendi.


Toplam 9 adet sonuctan sayfa basi 1 ile 9 arasi kadar sonuc gösteriliyor
  1. #1

    BDRip Get Smart | Akıllı Ol | 720p BluRay DUAL ARENA | 2008 | Rapid | Download | iNDiR


    Get Smart

    Akıllı Ol

    720p BluRay DUAL ARENA

    Language | Dublaj Dili : Türkçe
    Release Date | Gösterim Tarihi : 2008
    Upload By HandSome ( 11 Ağustos 2009 )







    Get Smart (2008)





    Alıntı

    Tür : Komedi / Aksiyon
    Gösterim Tarihi : 29 Ağustos 2008
    Yönetmen : Peter Segal
    Senaryo : Tom J. Astle , Matt Ember
    Yapım : 2008, ABD , 110 dk.

    Oyuncular

    Steve Carell (Maxwell Smart) , Anne Hathaway (Ajan 99) , Dwayne Johnson (Ajan 23) , Alan Arkin (Patron) , Terry Crews (Ajan 91) , Bill Murray (Ajan 13)
    ABD casus teşkilâtı Control’un kumanda merkezi saldırıya uğrayıp, ajanların kimlikleri ifşa olunca, Teşkilat Amiri’nin analizcisi Maxwell Smart’ı terfi ettirmekten başka şansı kalmaz.

    Her zaman Ajan 23’le çalışmanın hayallerini kuramuş olan Smart, ne yazık ki öldürücü Ajan 99’la çalışmak durumundadır. Smart ile 99, hem KAOS’un büyük planını ortaya çıkarmaya hem de birbirlerine yaklaşırken, KAOS’un kilit elemanlarından Siegfried ve yardımcısı Shtarker'ın yarattıkları terör ağına vurgun yapma hazırlığı içindedirler. Saha deneyiminden ve yeterli zamandan yoksun olan Smart, elinde birkaç süper teknolojik casus oyuncağı ve dizginlenemez coşkusuyla dünyayı kurtarıp KAOS’u yok etmek zorundadır.

    Senaryosu Austin Powers 4 adıyla yazılıp sonradan değiştirilen Akıllı Ol filminin karakterleri de Mel Brooks ve Buck Henry’nin yaratımlarına dayanıyor.



    Alıntı
    Video
    ID : 1
    Format : AVC
    Format/Info : Advanced Video Codec
    Format profile : [email protected]
    Format settings, CABAC : Yes
    Format settings, ReFrames : 8 frames
    Muxing mode : Container [email protected]
    Codec ID : V_MPEG4/ISO/AVC
    Duration : 1h 49mn
    Bit rate : 4 687 Kbps
    Nominal bit rate : 4 798 Kbps
    Width : 1 280 pixels
    Height : 720 pixels
    Display aspect ratio : 16:9
    Frame rate : 23.976 fps
    Resolution : 24 bits
    Colorimetry : 4:2:0
    Scan type : Progressive
    Bits/(Pixel*Frame) : 0.212
    Stream size : 3.60 GiB (82%)
    Writing library : x264 core 68 r1183M f21daff
    Encoding settings :

    Audio #1
    ID : 2
    Format : AC-3
    Format/Info : Audio Coding 3
    Codec ID : A_AC3
    Duration : 1h 49mn
    Bit rate mode : Constant
    Bit rate : 448 Kbps
    Channel(s) : 6 channels
    Channel positions : Front: L C R, Surround: L R, LFE
    Sampling rate : 48.0 KHz
    Stream size : 352 MiB (8%)
    Title : Turkce
    Language : Turkish

    Audio #2
    ID : 3
    Format : AC-3
    Format/Info : Audio Coding 3
    Codec ID : A_AC3
    Duration : 1h 49mn
    Bit rate mode : Constant
    Bit rate : 448 Kbps
    Channel(s) : 6 channels
    Channel positions : Front: L C R, Surround: L R, LFE
    Sampling rate : 48.0 KHz
    Stream size : 352 MiB (8%)
    Title : English
    Language : English

    Text
    ID : 4
    Format : UTF-8
    Codec ID : S_TEXT/UTF8
    Codec ID/Info : UTF-8 Plain Text
    Title : Turkce
    Language : Turkish

    Encoder GNC















    Bir Part Boyutu: 200 MB - Toplam Boyut: 4300 MB

    [HIDE]
     
    http://rapidshare.com/files/266073629/akilliol.www.cshtr.com.HandSome.part01.rar
    http://rapidshare.com/files/266073978/akilliol.www.cshtr.com.HandSome.part02.rar
    http://rapidshare.com/files/266073971/akilliol.www.cshtr.com.HandSome.part03.rar
    http://rapidshare.com/files/266073949/akilliol.www.cshtr.com.HandSome.part04.rar
    http://rapidshare.com/files/266073956/akilliol.www.cshtr.com.HandSome.part05.rar
    http://rapidshare.com/files/266073931/akilliol.www.cshtr.com.HandSome.part06.rar
    http://rapidshare.com/files/266073964/akilliol.www.cshtr.com.HandSome.part07.rar
    http://rapidshare.com/files/266073961/akilliol.www.cshtr.com.HandSome.part08.rar
    http://rapidshare.com/files/266073966/akilliol.www.cshtr.com.HandSome.part09.rar
    http://rapidshare.com/files/266073960/akilliol.www.cshtr.com.HandSome.part10.rar
    http://rapidshare.com/files/266075456/akilliol.www.cshtr.com.HandSome.part11.rar
    http://rapidshare.com/files/266075749/akilliol.www.cshtr.com.HandSome.part12.rar
    http://rapidshare.com/files/266075760/akilliol.www.cshtr.com.HandSome.part13.rar
    http://rapidshare.com/files/266075821/akilliol.www.cshtr.com.HandSome.part14.rar
    http://rapidshare.com/files/266075811/akilliol.www.cshtr.com.HandSome.part15.rar
    http://rapidshare.com/files/266075771/akilliol.www.cshtr.com.HandSome.part16.rar
    http://rapidshare.com/files/266075794/akilliol.www.cshtr.com.HandSome.part17.rar
    http://rapidshare.com/files/266075792/akilliol.www.cshtr.com.HandSome.part18.rar
    http://rapidshare.com/files/266075820/akilliol.www.cshtr.com.HandSome.part19.rar
    http://rapidshare.com/files/266075860/akilliol.www.cshtr.com.HandSome.part20.rar
    http://rapidshare.com/files/266077366/akilliol.www.cshtr.com.HandSome.part21.rar
    http://rapidshare.com/files/266077569/akilliol.www.cshtr.com.HandSome.part22.rar
    http://rapidshare.com/files/266076380/akilliol.www.cshtr.com.HandSome.part23.rar
    [/HIDE]





    www.cshtr.com




    Jezxy, metox, escala ve 11 kişi daha bunu beğendi.

  2. #2

    Standart

    tesekkurler arkadasim

  3. #3

    Standart

    Teşekkürler Eline Sağlık

  4. #4

    Standart

    paylaşim için teşekkürler

  5. #5

    Standart

    Sırf msj sayısı artsın diye tüm msjlara cevap yazanları bir daha uyarmıyacağım.Bu son uyarımdır!

  6. #6

    Standart

    partlar ölmüş bı baksak

  7. #7

    Standart

    Konu oldukça eskiymiş. Linklerin patlaması normal.

  8. #8

    Standart

    konu reupload filmlere taşınmıştır..

  9. #9

    Standart

    çok güzel olmuş sağol

Benzer Konular

  1. Cevap: 15
    Son Mesaj : 30.Ağustos.2014, 20:56
  2. Cevap: 14
    Son Mesaj : 24.Nisan.2012, 22:56
  3. Cevap: 2
    Son Mesaj : 23.Haziran.2011, 12:57
  4. Cevap: 13
    Son Mesaj : 28.Nisan.2011, 09:21
  5. Saw V | Testere 5 | 720p BluRay DUAL ARENA | Rapid | Download | iNDiR
    Konu Sahibi HandSome Forum 720p BRRip DuaL-TR
    Cevap: 2
    Son Mesaj : 14.Ocak.2010, 16:29