Gittigidiyor Reklam

Kara Film | Film Noir | 2007 | DVDRip TR DUBLAJ LTRG

Kara Film | Film Noir | 2007 | DVDRip TR DUBLAJ LTRG http://i33.tinypic.com/2j5gf9v.jpg IMDB http://www.imdb.com/title/tt0970933/

Bu konu 3161 kez görüntülendi ve 13 yorum aldı ...

    Konuyu değerlendir: Kara Film | Film Noir | 2007 | DVDRip TR DUBLAJ LTRG

    5 üzerinden 5.00 | Toplam: 1 kişi oyladı ve 3161 kez incelendi.


Sayfa 1 Toplam 2 Sayfadan 12 SonuncuSonuncu
Toplam 14 adet sonuctan sayfa basi 1 ile 10 arasi kadar sonuc gösteriliyor
  1. #1

    Dvdrip Kara Film | Film Noir | 2007 | DVDRip TR DUBLAJ LTRG

    Kara Film | Film Noir | 2007 | DVDRip TR DUBLAJ LTRG




    IMDB

    http://www.imdb.com/title/tt0970933/


    NFO

    Alıntı
    Genel
    Tam isim : Kara Film-Film Noir DVDRip TR DUBLAJ LTRG.avi
    Biçim : AVI
    Biçim/Info : Audio Video Interleave
    Dosya boyutu : 701 MiB
    Duration : 1s 36dk
    Kapsamlı BitOranı : 1021 Kbps
    Yapım uygulaması : VirtualDubMod 1.5.4.1 (build 2178/release)
    Yapım kütüphanesi : VirtualDubMod build 2178/release
    IAS1 : Turkish

    Görüntü
    Biçim : MPEG-4 Visual
    Format profile : Streaming [email protected]
    Format settings, BVOP : Evet
    Format settings, QPel : Hayır
    Format settings, GMC : No warpoints
    Format settings, Matrix : Custom
    Codec ID : XVID
    Codec ID/Hint : XviD
    Duration : 1s 36dk
    Bit oranı : 886 Kbps
    Genişlik : 624 piksel
    Yükseklik : 352 piksel
    En-Boy oranı : 16/9
    Kare hızı : 25.000 kare/s
    Çözünürlük : 8 bit
    Colorimetry : 4:2:0
    Scan type : Aşamalı
    Bit/(Piksel*Kare) : 0.161
    Stream size : 608 MiB
    Yapım kütüphanesi : XviD 1.2.0.dev47 (UTC 2006-11-01)

    Ses
    Biçim : MPEG Audio
    Format version : Version 1
    Format profile : Layer 3
    Codec ID : 55
    Codec ID/Hint : MP3
    Duration : 1s 36dk
    Bit oranı kipi : Constant
    Bit oranı : 128 Kbps
    Minimum bit rate : 128 Kbps
    Kanal(lar) : 2 kanal
    Örnekleme oranı : 48.0 KHz
    Çözünürlük : 16 bit
    Stream size : 87.9 MiB
    Yapım kütüphanesi : LAME3.97
    Kodlama ayarları : CBR
    KONU

    Alıntı
    KARA FİLM

    Önce uyanırsın sonra kabus başlar.

    Los Angeles’da geceyarısı. Bir kahraman gözlerini açıyor, bilinci yavaş yavaş kendine geliyor. Yukarıda parlayan

    Hollywood tabelasını görüyor. Hemen yanında park etmiş bir polis arabası ve ölü bir polis var, polisin yanında da

    bir silah. Duruma bakılırsa silah kahramanımızın kılıfına uyuyordu ve katil O’ymuş gibi görünüyordu. Ve O, neler

    olduğuna dair hiçbir şey hatırlamıyordu. Oraya nasıl geldi ve neler yaşandı, kimdi? Siren sesleri duyuldu, kaçma

    zamanıydı. Ölü polisin arabasını aldı ve geceye karıştı
    CAPS




    DOWNLOAD

    [hide]
     
    http://rapidshare.com/files/151170913/Kara_Film___Film_Noir__2007_-MeMo.part1.rar
    http://rapidshare.com/files/151170984/Kara_Film___Film_Noir__2007_-MeMo.part2.rar
    http://rapidshare.com/files/151171034/Kara_Film___Film_Noir__2007_-MeMo.part3.rar
    http://rapidshare.com/files/151171097/Kara_Film___Film_Noir__2007_-MeMo.part4.rar
    http://rapidshare.com/files/151171152/Kara_Film___Film_Noir__2007_-MeMo.part5.rar
    http://rapidshare.com/files/151171198/Kara_Film___Film_Noir__2007_-MeMo.part6.rar
    http://rapidshare.com/files/151171249/Kara_Film___Film_Noir__2007_-MeMo.part7.rar
    http://rapidshare.com/files/151171250/Kara_Film___Film_Noir__2007_-MeMo.part8.rar
    [/hide]


    Rar Pass(Şifre)

    www.cshtr.com

    javier3, symptom, thamos ve 55 kişi daha bunu beğendi.

  2. #2

    Standart

    ellerine sağlık
    black8, MeMo, macosx ve 2 kişi daha bunu beğendi.

  3. #3

    Standart

    eline sağlık abi teşekkürler ama tr dublaj da olsa animasyon çizgifilm kısmına taşıyorum
    storm2125 ve Ilgarmisra bunu beğendi.

  4. #4

    Standart

    ilginç bir filme benziyor ya siyah felan teşekkrler abi ellerine sağlık.

  5. #5

    Standart

    evet enteresan ellerine sağlık abi

  6. #6

    Standart

    Kont vladım bu filmin pek çocuklarla alakası yok...
    O gösterilmeyen karelerde enteresan sahneler var ben kapadım...
    Bence bu filmi burdan alın derim hehee

  7. #7

    Standart

    anladım abicim o zaman uyarı tarzı bişiler ekleyelim sen gördüğün için filmi Bir yaş ve ne tür içerik olduğu konusunu belirtirsen iyi olur

  8. #8

    Standart

    manyag bişey ....

  9. #9

    Standart

    teşekkürler abi eline sağlık

  10. #10

    Standart

    iiii aferim

Benzer Konular

  1. Cevap: 13
    Son Mesaj : 26.Ocak.2013, 17:41
  2. Juno | 2007 | DVDRip | Türkçe Dublaj | Oscarlı Film
    Konu Sahibi MeMo Forum DVDRip | DVBRip DuaL-TR
    Cevap: 20
    Son Mesaj : 12.Ağustos.2011, 17:42
  3. Cevap: 1
    Son Mesaj : 04.Şubat.2011, 16:08
  4. Lake Placid 2 | Kara Göl 2 | 2007 | Dvdrip Xvid | Rapid Download | TR Dublaj | iNDiR
    Konu Sahibi HeFFeR Forum Çalışmayan Linkler | Çöp Kutusu
    Cevap: 0
    Son Mesaj : 03.Mayıs.2009, 13:27