Gittigidiyor Reklam

Ana Kuzusu | Mamas Boy | 2007 | DVBRip | TR Dublaj

Ana Kuzusu & Mama's Boy | 2007 | TÜRKÇE http://i476.photobucket.com/albums/rr129/memmo-2008/anakuzusuposter.jpg IMDB http://www.imdb.com/title/tt0415141/ NFO

Bu konu 3597 kez görüntülendi ve 24 yorum aldı ...

    Konuyu değerlendir: Ana Kuzusu | Mamas Boy | 2007 | DVBRip | TR Dublaj

    5 üzerinden 5.00 | Toplam: 1 kişi oyladı ve 3597 kez incelendi.


Sayfa 3 Toplam 3 Sayfadan BirinciBirinci 123
Toplam 25 adet sonuctan sayfa basi 21 ile 25 arasi kadar sonuc gösteriliyor
  1. #1

    Dvdrip Ana Kuzusu | Mamas Boy | 2007 | DVBRip | TR Dublaj

    Ana Kuzusu & Mama's Boy | 2007 | TÜRKÇE



    IMDB

    http://www.imdb.com/title/tt0415141/

    NFO

     
    Format                           : AVI
    Format/Info                      : Audio Video Interleave
    File size                        : 700 MiB
    Duration                         : 1h 29mn
    Overall bit rate                 : 1 089 Kbps
    Writing application              : VirtualDubMod 1.5.4.1 (build 2178/release)
    Writing library                  : VirtualDubMod build 2178/release
    IAS1                             : ???
    
    Video
    Format                           : MPEG-4 Visual
    Format profile                   : Streaming [email protected]
    Format settings, BVOP            : Yes
    Format settings, QPel            : No
    Format settings, GMC             : No warppoints
    Format settings, Matrix          : Custom
    Codec ID                         : XVID
    Codec ID/Hint                    : XviD
    Duration                         : 1h 29mn
    Bit rate                         : 901 Kbps
    Width                            : 704 pixels
    Height                           : 528 pixels
    Display aspect ratio             : 4/3
    Frame rate                       : 25.000 fps
    Resolution                       : 24 bits
    Colorimetry                      : 4:2:0
    Scan type                        : Progressive
    Bits/(Pixel*Frame)               : 0.097
    Stream size                      : 579 MiB (83%)
    Writing library                  : XviD 1.1.2 (UTC 2006-11-01)
    
    Audio
    Format                           : MPEG Audio
    Format version                   : Version 1
    Format profile                   : Layer 3
    Codec ID                         : 55
    Codec ID/Hint                    : MP3
    Duration                         : 1h 29mn
    Bit rate mode                    : Variable
    Bit rate                         : 175 Kbps
    Channel(s)                       : 2 channels
    Sampling rate                    : 48.0 KHz
    Resolution                       : 16 bits
    Stream size                      : 113 MiB (16%)
    Alignment                        : Aligned on interleaves
    Interleave, duration             : 24 ms (0.60 video frame)
    Interleave, preload duration     : 513 ms
    Konu

    Alıntı
    29 yaşındaki çocuk ruhlu Jeffrey hala annesi Jan ile birlikte yaşamaktadır ve annesinin ona sunduğu bu el bebek gül bebek yaşamdan da vazgeçmeye hiç niyeti yoktur...

    Bir türlü büyümeye niyeti olmayan Jeffrey’nin bu “5 yıldızlı otel” konforundaki hayatı annesinin çekici Mert ile tanışması ile tehlikeye girer. Mert çabucak Jan’ın aklını başından alır ve ana oğulun evlerine taşınır...

    Jeffrey annesi ile yeni sevgilisinin ilişkisini sabote etmek için güzel garson / gitarist Nora’dan yardım almaktadır.

    Cici baba adayı ile Jeffrey’nin arasındaki komik rekabet gittikçe artarken, herkesi şaşırtan bir gelişme olur ve Jeffrey yavaş yavaş içindeki “yetişkin” i keşfetmeye başlar...
    Caps



    Download

    [hide]
     
    http://rapidshare.com/files/145411277/Ana.Kuzusu.2007.DVBRip.TR_Dublaj.part1.rar
    http://rapidshare.com/files/145411441/Ana.Kuzusu.2007.DVBRip.TR_Dublaj.part2.rar
    http://rapidshare.com/files/145411631/Ana.Kuzusu.2007.DVBRip.TR_Dublaj.part3.rar
    http://rapidshare.com/files/145411826/Ana.Kuzusu.2007.DVBRip.TR_Dublaj.part4.rar
    http://rapidshare.com/files/145412013/Ana.Kuzusu.2007.DVBRip.TR_Dublaj.part5.rar
    http://rapidshare.com/files/145412199/Ana.Kuzusu.2007.DVBRip.TR_Dublaj.part6.rar
    http://rapidshare.com/files/145412394/Ana.Kuzusu.2007.DVBRip.TR_Dublaj.part7.rar
    [/hide]

     
    RaR PaSS (Şifre)
    www.cshtr.com




    ...:: İyi Seyirler ::...


  2. #21

    Standart

    Linkler silinmiş.

  3. #22

    Standart

    tsk ederım ellerıneıze saglık ızleyelım bakalım bu fılmı

  4. #23

    Standart

    Linkler ölmüş

  5. #24

    Genel Yönetici


  6. #25

    Standart

    rapid linkleri silinmiş arkadaşlar

Benzer Konular

  1. Cevap: 48
    Son Mesaj : 31.Ocak.2012, 00:38
  2. Cevap: 55
    Son Mesaj : 27.Mart.2011, 16:28
  3. Bitirim İkili 3 | Rush Hour 3 | 2007 | DVBRip | Türkçe Dublaj | Rs
    Konu Sahibi DayLight Forum DVDRip | DVBRip DuaL-TR
    Cevap: 33
    Son Mesaj : 10.Temmuz.2010, 18:11
  4. Altın Pusula | The Golden Compass | 2007 | Türkçe Dublaj | DvbRip | Rs
    Konu Sahibi DayLight Forum DVDRip | DVBRip DuaL-TR
    Cevap: 32
    Son Mesaj : 25.Mayıs.2010, 10:23
  5. İki Sarışın Şimdiden Alışın | 2007 | DVBRip | Türkçe Dublaj | Rapidshare
    Konu Sahibi _KiNG_ Forum Yerli ve Türkçe Dublaj Filmler
    Cevap: 3
    Son Mesaj : 08.Mayıs.2009, 15:19