emlaklik & sedatyucel

The Spy Next Door | DVDRip aXXo | 2010 | 3 Alternatif | Download | iNDiR

The Spy Next Door DVDRip aXXo & IMAGINE Language | Dublaj Dili : English Release Date | Gösterim Tarihi : 2010 Subtitle | Altyazı : Türkçe (Harici Altyazı) Upload By geompac ( 11 Şubat 2010 ) Uploader Notu : Altyazı Dosyası içinde DEĞİLDİR!

Bu konu 13500 kez görüntülendi ve 40 yorum aldı ...

    Konuyu değerlendir: The Spy Next Door | DVDRip aXXo | 2010 | 3 Alternatif | Download | iNDiR

    5 üzerinden | Toplam: 0 kişi oyladı ve 13500 kez incelendi.


Sayfa 2 Toplam 5 Sayfadan BirinciBirinci 12345 SonuncuSonuncu
Toplam 41 adet sonuctan sayfa basi 11 ile 20 arasi kadar sonuc gösteriliyor
  1. #1

    Genel Yönetici

    Dvdrip The Spy Next Door | DVDRip aXXo | 2010 | 3 Alternatif | Download | iNDiR


    The Spy Next Door

    DVDRip aXXo & IMAGINE

    Language | Dublaj Dili : English
    Release Date | Gösterim Tarihi : 2010
    Subtitle | Altyazı : Türkçe (Harici Altyazı)
    Upload By geompac ( 11 Şubat 2010 )

    Uploader Notu : Altyazı Dosyası içinde DEĞİLDİR!







    www.imdb.com/title/tt1273678/





    Alıntı

    Fim, başrolünde Jackie Chan’ i casusluk kariyerini bırakıp yan kapı komşusu ve kız arkadaşı olan Gillian (Amber Valetta) ile oturmaya karar veren gizli bir CIA süper ajanı olarak Bob Ho rolünde oynatıyor. Ama Bob’un Gillian’ ın onunla evlenmeyi kabul etmeden önce tamamlaması gereken bir görevi daha vardır: 3 çocuğunun dostluğunu kazanmak.Gillian acilen şehirden ayrılmak zorunda kalınca, Bob çocuklara bakmak için gönüllü olur, böylece onların onayını kazanabilecektir. Ama çocuklardan biri yanlışlıkla çok gizli bir formülü bilgisayarından indirince, Bob’un baş düşmanı Rus bir terörist, Bob’u kariyerinin en zorlu görevinde, casusluk ve babalık rollerini değiştirmesi için zorlayarak saldırı için harekete geçer.Dövüş sanatları süper yıldızı Jackie Chan, başarılı bir destekleyici oyuncu kadrosuyla ekranlarda görülüyor.


    Alıntı
    Ripper ...........: IMAGiNE
    Video Codec.......: XVID
    Release Date......:09/02/10
    Audio Codec.......:MP3
    Theatre Date......:15/01/09
    Audio Bitrate.....:128 Runtime.......:1h 30
    mnSubtitles.........:NIL Language..........:
    ENGLISH
    Resolution...... 640 x 352

    DETAILS:

    VideoID

    : 0Format
    : MPEG-4 VisualFormat profile
    : Advanced [email protected] settings, BVOP
    : YesFormat settings, QPel
    : NoFormat settings, GMC
    : No warppointsFormat settings, Matrix
    : Default (H.263)Muxing mode
    : Packed bitstreamCodec ID
    : XVIDCodec ID/Hint
    : XviDDuration
    : 1h 30mnBit rate
    : 955 KbpsWidth
    : 640 pixelsHeight
    : 352 pixelsDisplay aspect ratio
    : 16:9Frame rate
    : 25.000 fpsResolution
    : 8 bitsColorimetry
    : 4:2:0Scan type
    : ProgressiveBits/(Pixel*Frame)
    : 0.169Stream size
    : 616 MiB (87%)Writing library
    : XviD 1.2.1 (UTC 2008-12-04)AudioID
    : 1Format
    : MPEG AudioFormat version
    : Version 1Format profile
    : Layer 3Mode
    : Joint stereoFormat_Settings_ModeExte nsion
    : MS StereoCodec ID
    : 55Codec ID/Hint
    : MP3Duration
    : 1h 30mnBit rate mode
    : ConstantBit rate
    : 128 KbpsChannel(s)
    : 2 channelsSampling rate
    : 44.1 KHzStream size
    : 82.6 MiB (12%)Alignment
    : Split accross interleavesInterleave, duration
    : 40 ms (1.00 video frame)Interleave, preload duration
    : 500 msNOTES:




















    Bir Part Boyutu: 197 MB - Toplam Boyut: 705 MB

    [HIDE]
     
    Rapidshare
    http://rapidshare.com/files/403807578/TSND.DVDRip.CSHTR_MetaLyuM.part1.rar
    http://rapidshare.com/files/403807577/TSND.DVDRip.CSHTR_MetaLyuM.part2.rar
    http://rapidshare.com/files/403807575/TSND.DVDRip.CSHTR_MetaLyuM.part3.rar
    http://rapidshare.com/files/403807576/TSND.DVDRip.CSHTR_MetaLyuM.part4.rar
    Netload.in
    http://netload.in/dateiqBU843bcex/TSND.DVDRip.CSHTR_MetaLyuM.part1.rar.htm
    http://netload.in/datei9tpIcnBsHK/TSND.DVDRip.CSHTR_MetaLyuM.part2.rar.htm
    http://netload.in/dateiVNlDiOrOSK/TSND.DVDRip.CSHTR_MetaLyuM.part3.rar.htm
    http://netload.in/dateityKv0XCN8I/TSND.DVDRip.CSHTR_MetaLyuM.part4.rar.htm
    
    Hotfile
    http://hotfile.com/dl/35171067/b06ae21/www.cshtr.com.geompac.TSND.part1.rar.html
    http://hotfile.com/dl/35171306/bef6b33/www.cshtr.com.geompac.TSND.part2.rar.html
    http://hotfile.com/dl/35171526/411cb14/www.cshtr.com.geompac.TSND.part3.rar.html
    http://hotfile.com/dl/35171621/a09475a/www.cshtr.com.geompac.TSND.part4.rar.html
    Uyumlu Türkçe Altyazı
    http://hotfile.com/dl/35173060/ac0ea12/www.cshtr.com.geompac.TSND.TrSub.rar.html
    Enterupload
    http://www.enterupload.com/i7i7ou3rop4w/www.cshtr.com.geompac.TSND.part1.rar.html
    http://www.enterupload.com/sdj647wf3ui6/www.cshtr.com.geompac.TSND.part2.rar.html
    http://www.enterupload.com/lend4cdrj1bl/www.cshtr.com.geompac.TSND.part3.rar.html
    http://www.enterupload.com/rz4moc5r0emo/www.cshtr.com.geompac.TSND.part4.rar.html
    
    TR Altyazı: http://divxplanet.com/sub/s/157019/The-Spy-Next-Door.html
    [/HIDE]

    Not: RapidShare ve Netload - Hotfile ve Enterupload Linkleri birbiri ile UYUMLUDUR !



    www.cshtr.com




    ironny, hekimoglu, abeced ve 74 kişi daha bunu beğendi.

  2. #11

    Standart

    ellerine sağlık...

  3. #12

    Standart

    teşekkürler

  4. #13

    Standart

    altyazısı nerede arkadaşlar

  5. #14

    Genel Yönetici

    Standart

    uyumlu altyazı konuya eklenmiştir.

  6. #15

    Standart

    teşekkürler

  7. #16

    Standart

    teşekkürler

  8. #17

    Standart

    link yasakkkk

  9. #18

    Standart

    Henüz indirmedim ama şimdiden teşekkürler. Dönemem tekrar falan....

  10. #19

    Standart

    burdan daha hızlı iniyor.

    kont vlad link silindi

  11. #20

    Standart

    teşekkürler

Benzer Konular

  1. Cevap: 7
    Son Mesaj : 05.Ocak.2016, 17:45
  2. Cevap: 16
    Son Mesaj : 19.Ocak.2013, 02:15
  3. Cevap: 19
    Son Mesaj : 01.Ocak.2013, 14:41
  4. Cevap: 11
    Son Mesaj : 11.Ocak.2011, 03:07