Gittigidiyor Reklam

Pulse 1 | Nabız 1 | DVDRip XViD NoGrP | TR Dublaj | 2006 | Rapid | Download | iNDiR

Pulse 1 Nabız 1 DVDRip XViD NoGrP Language | Dublaj Dili : Türkçe Release Date | Gösterim Tarihi : 2006 Upload By HandSome ( 24 Ağustos 2009 )

Bu konu 3105 kez görüntülendi ve 7 yorum aldı ...

    Konuyu değerlendir: Pulse 1 | Nabız 1 | DVDRip XViD NoGrP | TR Dublaj | 2006 | Rapid | Download | iNDiR

    5 üzerinden | Toplam: 0 kişi oyladı ve 3105 kez incelendi.


Toplam 8 adet sonuctan sayfa basi 1 ile 8 arasi kadar sonuc gösteriliyor
  1. #1

    Dvdrip Pulse 1 | Nabız 1 | DVDRip XViD NoGrP | TR Dublaj | 2006 | Rapid | Download | iNDiR


    Pulse 1

    Nabız 1

    DVDRip XViD NoGrP

    Language | Dublaj Dili : Türkçe
    Release Date | Gösterim Tarihi : 2006
    Upload By HandSome ( 24 Ağustos 2009 )







    Pulse (2006/I)





    Alıntı

    Tür : Korku / Gizem
    Gösterim Tarihi : 8 Eylül 2006
    Yönetmen : Jim Sonzero
    Senaryo : Kiyoshi Kurosawa , Wes Craven
    Görüntü Yönetmeni : Mark Plummer
    Müzik : Elia Cmiral
    Yapım : 2006, ABD

    Oyuncular

    Kristen Bell (Mattie Webber) , Tate Hanyok (Cafe girl) , Ian Somerhalder (Dexter McCarthy) , Christina Milian (Isabell Fuentes) , Rick Gonzalez (Stone) , Riki Lindhome (Janelle) , Jonathan Tucker (Josh) , Amanda Tepe (Grad Student) , Samm Levine (Tim Steinberg)
    Bir gün teknolojinin nimetleri, öbür dünyadaki lanetlenmiş ruhlar tarafından bu dünyaya açılan bir kapı olarak kullanılmak istenirse ve bu kapı, bir daha kapatılamazsa ne olur? Öbür dünyanın ruhları, kendi lanetlenmişliklerinden sıyrılmak ve bu dünyadaki canlılarda olup da onlarda olmayan tek şeye, 'yaşam'a sahip olabilmek için kablosuz teknolojinin bütün olanaklarını kullanarak bu dünyaya sızmaya çalışırlar.

    Her cep telefonu kullanımıyla ya da her mail kontrolüyle yaşam bu dünyadan çalınmakta ve ölülerin eline geçmektedir. Belirlenmiş bir grup gencin tek yapması gereken şey, vakit çok geç olmadan bu kapıyı kapatmanın bir yolunu bulmaktır.

    Jim Sonzero'nun yönettiği Nabız, Halka, Halka 2 ve Garez' den sonra Hollywood'un merak sardığı yeniden çevrim Japon filmlerinden biri. Orjinalinin Kiyoshi Kurosawa tarafından yazılıp yönetildiği filmin eleştirmenler tarafından olumlu not aldığını da belirtelim.



    Alıntı
    Format : AVI
    Format/Info : Audio Video Interleave
    File size : 704 MiB
    Duration : 1h 24mn
    Overall bit rate : 1 169 Kbps
    Writing application : VirtualDubMod 1.5.4.1 (build 2178/release)
    Writing library : VirtualDubMod build 2178/release

    Video
    ID : 0
    Format : MPEG-4 Visual
    Format profile : [email protected]
    Format settings, BVOP : Yes
    Format settings, QPel : No
    Format settings, GMC : No warppoints
    Format settings, Matrix : Custom
    Codec ID : XVID
    Codec ID/Hint : XviD
    Duration : 1h 24mn
    Bit rate : 1 041 Kbps
    Width : 720 pixels
    Height : 304 pixels
    Display aspect ratio : 2.35:1
    Frame rate : 25.000 fps
    Resolution : 24 bits
    Colorimetry : 4:2:0
    Scan type : Progressive
    Bits/(Pixel*Frame) : 0.190
    Stream size : 627 MiB (89%)
    Writing library : XviD 1.2.0.dev47 (UTC 2006-11-01)

    Audio
    ID : 1
    Format : MPEG Audio
    Format version : Version 1
    Format profile : Layer 3
    Codec ID : 55
    Codec ID/Hint : MP3
    Duration : 1h 24mn
    Bit rate mode : Variable
    Bit rate : 115 Kbps
    Nominal bit rate : 128 Kbps
    Channel(s) : 2 channels
    Sampling rate : 48.0 KHz
    Resolution : 16 bits
    Stream size : 69.2 MiB (10%)
    Alignment : Aligned on interleaves
    Interleave, duration : 24 ms (0.60 video frame)
    Interleave, preload duration : 614 ms
    Writing library : LAME3.97
    Encoding settings : -m j -V 4 -q 2 -lowpass 17 --abr 128
    Language : Turkish











    Bir Part Boyutu: 200 MB - Toplam Boyut: 700 MB

    [HIDE]
     
    http://rapidshare.com/files/270952737/nabiz.1.www.cshtr.com.HandSome.part1.rar
    http://rapidshare.com/files/270952846/nabiz.1.www.cshtr.com.HandSome.part2.rar
    http://rapidshare.com/files/270953074/nabiz.1.www.cshtr.com.HandSome.part3.rar
    http://rapidshare.com/files/270950789/nabiz.1.www.cshtr.com.HandSome.part4.rar
    [/HIDE]





    www.cshtr.com





  2. #2

    Standart

    Emeğine Sağlık Teşekkürler.

  3. #3

    Standart

    tsklerrrrrrrrrrr

  4. #4

    Standart

    tesekkurler..

  5. #5

    Standart

    Teşekkürler

  6. #6

    Standart

    teşekkürler

  7. #7

    Standart

    Linkler Ölmüş

  8. #8

    Standart

    teşekkürler

Benzer Konular

  1. Pulse 3 | Nabız 3 | DVD5 TR-ENG | 2 Alternatif | Download | iNDiR
    Konu Sahibi CSHTR_PRG Forum DVD | HD-DVD DuaL-TR
    Cevap: 3
    Son Mesaj : 09.Temmuz.2013, 21:07
  2. Cevap: 3
    Son Mesaj : 30.Ocak.2013, 23:29
  3. Cevap: 11
    Son Mesaj : 29.Ocak.2013, 21:56
  4. Cevap: 3
    Son Mesaj : 29.Ocak.2013, 01:49
  5. Cevap: 8
    Son Mesaj : 11.Aralık.2009, 13:52