emlaklik & sedatyucel

Sweeny Todd | Fleet Sokağının Şeytan Berberi | 2007 | DvdRip Xvid | Tr Dublaj | Rapid

Sweeny Todd: Fleet Sokağının Şeytan Berberi | 2007 | Türkçe Dublaj | OpeD http://i35.tinypic.com/16k979i.jpg IMDB http://www.imdb.com/title/tt0408236/

Bu konu 2881 kez görüntülendi ve 10 yorum aldı ...

    Konuyu değerlendir: Sweeny Todd | Fleet Sokağının Şeytan Berberi | 2007 | DvdRip Xvid | Tr Dublaj | Rapid

    5 üzerinden | Toplam: 0 kişi oyladı ve 2881 kez incelendi.


Sayfa 2 Toplam 2 Sayfadan BirinciBirinci 12
Toplam 11 adet sonuctan sayfa basi 11 ile 11 arasi kadar sonuc gösteriliyor
  1. #1

    Dvdrip Sweeny Todd | Fleet Sokağının Şeytan Berberi | 2007 | DvdRip Xvid | Tr Dublaj | Rapid

    Sweeny Todd: Fleet Sokağının Şeytan Berberi | 2007 | Türkçe Dublaj | OpeD




    IMDB

    http://www.imdb.com/title/tt0408236/


    NFO

    Alıntı
    Genel
    Tam isim : C:\Documents and Settings\volkanix\Desktop\Seyt anin.Berberi.2007.DvdRib.OpeD. avi
    Biçim : AVI
    Biçim/Info : Audio Video Interleave
    Dosya boyutu : 700 MiB
    Duration : 1s 51dk
    Kapsamlı BitOranı : 877 Kbps
    Yapım uygulaması : VirtualDubMod 1.5.4.1 (build 2178/release)
    Yapım kütüphanesi : VirtualDubMod build 2178/release
    IAS1 : Turkish

    Görüntü
    Biçim : MPEG-4 Visual
    Format profile : Streaming [email protected]
    Format settings, BVOP : Evet
    Format settings, QPel : Hayır
    Format settings, GMC : No warpoints
    Format settings, Matrix : Custom
    Codec ID : XVID
    Codec ID/Hint : XviD
    Duration : 1s 51dk
    Bit oranı : 758 Kbps
    Genişlik : 704 piksel
    Yükseklik : 528 piksel
    En-Boy oranı : 4/3
    Kare hızı : 25.000 kare/s
    Çözünürlük : 8 bit
    Colorimetry : 4:2:0
    Scan type : Aşamalı
    Bit/(Piksel*Kare) : 0.082
    Stream size : 605 MiB
    Yapım kütüphanesi : XviD 1.2.0.dev47 (UTC 2006-11-01)

    Ses
    Biçim : MPEG Audio
    Format version : Version 1
    Format profile : Layer 3
    Codec ID : 55
    Codec ID/Hint : MP3
    Duration : 1s 51dk
    Bit oranı kipi : Variable
    Bit oranı : 106 Kbps
    Minimum bit rate : 128 Kbps
    Kanal(lar) : 2 kanal
    Örnekleme oranı : 48.0 KHz
    Çözünürlük : 16 bit
    Görüntü gecikmesi : 24ms
    Stream size : 84.5 MiB
    Yapım kütüphanesi : LAME3.97
    Kodlama ayarları : ABR
    KONU

    Alıntı
    Oyuncular : Johnny Depp (Sweeney Todd) , Helena Bonham Carter (Mrs. Lovett) , Alan Rickman (Yargıç Turpin) , Timothy Spall (Beadle Bamford) , Sacha Baron Cohen (Adolfo Pirelli) , Jayne Wisener (Johanna) , Jamie Campbell Bower (Anthony Hope)
    Sweeney Todd adıyla kötü bir üne sahip olan Benjamin Barker'ın komedi, dram ve gerilim dolu hikayesi... Sweeney Todd'un Londra'da açtığı berber dükkanı, kendisinin kötülük konusunda tam bir kopyası olan kiracısı Mrs. Lovett'la olan sıradışı ilişkisi nedeniyle hayli ünlenir. O sıradan bir berber değildir; efsanedir ama hiç de iyi ünü olmayan bir efsane...

    1979 yılında Broadway'de gösterime girdiğinde büyük sükse yaratan ve En İyi Müzik dahil 8 dalda Tony Ödülü kazanan müzikal, tüm dünyada yüzlerce kez sahnelendi.

    Film hakkında Bilgi : film muzikal bir filmdir. Müzikleri tr ses yapmak biraz abest olacaktır haliyle müzik olan yerler tr alt yazılıdır. filmin Normalde tr dublaj dvdsi çıkmamıştır. TV deki Ses Filme entegre edilmiştir. Bilginize.
    CAPS




    DOWNLOAD
    Rapidshare.com | Hotfile.com | Uploading.com
    [HIDE]
     
    Rapidshare.com
    http://rapidshare.com/files/388318956/Sweeny_Todd-Fleet_Sokaginin_Seytan_Berberi__2007_-MeMo.part1.rar
    http://rapidshare.com/files/388319043/Sweeny_Todd-Fleet_Sokaginin_Seytan_Berberi__2007_-MeMo.part2.rar
    http://rapidshare.com/files/388319115/Sweeny_Todd-Fleet_Sokaginin_Seytan_Berberi__2007_-MeMo.part3.rar
    http://rapidshare.com/files/388319141/Sweeny_Todd-Fleet_Sokaginin_Seytan_Berberi__2007_-MeMo.part4.rar
    http://rapidshare.com/files/388319288/Sweeny_Todd-Fleet_Sokaginin_Seytan_Berberi__2007_-MeMo.part5.rar
    http://rapidshare.com/files/388319678/Sweeny_Todd-Fleet_Sokaginin_Seytan_Berberi__2007_-MeMo.part6.rar
    http://rapidshare.com/files/388319817/Sweeny_Todd-Fleet_Sokaginin_Seytan_Berberi__2007_-MeMo.part7.rar
    
    Hotfile.com
    http://hotfile.com/dl/43275832/2172c62/Sweeny_Todd-Fleet_Sokaginin_Seytan_Berberi__2007_-MeMo.part1.rar.html
    http://hotfile.com/dl/43275867/bc16281/Sweeny_Todd-Fleet_Sokaginin_Seytan_Berberi__2007_-MeMo.part2.rar.html
    http://hotfile.com/dl/43275869/a5a644b/Sweeny_Todd-Fleet_Sokaginin_Seytan_Berberi__2007_-MeMo.part3.rar.html
    http://hotfile.com/dl/43275899/a83953c/Sweeny_Todd-Fleet_Sokaginin_Seytan_Berberi__2007_-MeMo.part4.rar.html
    http://hotfile.com/dl/43275947/bd9db91/Sweeny_Todd-Fleet_Sokaginin_Seytan_Berberi__2007_-MeMo.part5.rar.html
    http://hotfile.com/dl/43275948/d0a91f0/Sweeny_Todd-Fleet_Sokaginin_Seytan_Berberi__2007_-MeMo.part6.rar.html
    http://hotfile.com/dl/43275987/4cd13b6/Sweeny_Todd-Fleet_Sokaginin_Seytan_Berberi__2007_-MeMo.part7.rar.html
    
    Uploading.com
    http://uploading.com/files/c3c8ebm8/Sweeny_Todd-Fleet_Sokaginin_Seytan_Berberi__2007_-MeMo.part1.rar/
    http://uploading.com/files/182ea9af/Sweeny_Todd-Fleet_Sokaginin_Seytan_Berberi__2007_-MeMo.part2.rar/
    http://uploading.com/files/aaeb67e5/Sweeny_Todd-Fleet_Sokaginin_Seytan_Berberi__2007_-MeMo.part3.rar/
    http://uploading.com/files/b4a26c8b/Sweeny_Todd-Fleet_Sokaginin_Seytan_Berberi__2007_-MeMo.part4.rar/
    http://uploading.com/files/b8979b8d/Sweeny_Todd-Fleet_Sokaginin_Seytan_Berberi__2007_-MeMo.part5.rar/
    http://uploading.com/files/7f34a1a5/Sweeny_Todd-Fleet_Sokaginin_Seytan_Berberi__2007_-MeMo.part6.rar/
    http://uploading.com/files/5f5bff5e/Sweeny_Todd-Fleet_Sokaginin_Seytan_Berberi__2007_-MeMo.part7.rar/
    [/HIDE]

    Not: Linkler birbiri ile uyumludur. Karışık indirebilirsiniz.


    Rar Pass(Şifre)

    www.cshtr.com


  2. #11

    Standart

    maalesef linkler kırık..

Benzer Konular

  1. Cevap: 0
    Son Mesaj : 13.Kasım.2010, 15:33
  2. Cevap: 3
    Son Mesaj : 18.Haziran.2010, 00:12
  3. Cevap: 1
    Son Mesaj : 26.Ocak.2010, 23:54
  4. Cevap: 25
    Son Mesaj : 15.Ocak.2010, 16:13
  5. Cevap: 9
    Son Mesaj : 26.Ağustos.2009, 07:55