emlaklik & sedatyucel

Kardaki Yaratık | Yeti Snow Demon | 2008 | DVDRip | TR Dublaj

Kardaki Yaratık & Yeti: Curse of the Snow Demon | 2008 | TÜRKÇE http://i476.photobucket.com/albums/rr129/memmo-2008/yetiposter.jpg IMDB Yeti: Curse of the Snow Demon (2008) (TV) NFO

Bu konu 3522 kez görüntülendi ve 18 yorum aldı ...

    Konuyu değerlendir: Kardaki Yaratık | Yeti Snow Demon | 2008 | DVDRip | TR Dublaj

    5 üzerinden 4.00 | Toplam: 2 kişi oyladı ve 3522 kez incelendi.


Sayfa 1 Toplam 2 Sayfadan 12 SonuncuSonuncu
Toplam 19 adet sonuctan sayfa basi 1 ile 10 arasi kadar sonuc gösteriliyor
  1. #1

    Dvdrip Kardaki Yaratık | Yeti Snow Demon | 2008 | DVDRip | TR Dublaj

    Kardaki Yaratık & Yeti: Curse of the Snow Demon | 2008 | TÜRKÇE



    IMDB

    Yeti: Curse of the Snow Demon (2008) (TV)

    NFO

     
    Format                           : AVI
    Format/Info                      : Audio Video Interleave
    File size                        : 699 MiB
    Duration                         : 1h 23mn
    Overall bit rate                 : 1 173 Kbps
    Writing application              : VirtualDubMod 1.5.4.1 (build 2178/release)
    Writing library                  : VirtualDubMod build 2178/release
    IAS1                             : Turkish
    
    Video
    Format                           : MPEG-4 Visual
    Format profile                   : Streaming [email protected]
    Format settings, BVOP            : Yes
    Format settings, QPel            : No
    Format settings, GMC             : No warppoints
    Format settings, Matrix          : Custom
    Codec ID                         : XVID
    Codec ID/Hint                    : XviD
    Duration                         : 1h 23mn
    Bit rate                         : 983 Kbps
    Width                            : 704 pixels
    Height                           : 528 pixels
    Display aspect ratio             : 4/3
    Frame rate                       : 25.000 fps
    Resolution                       : 24 bits
    Colorimetry                      : 4:2:0
    Scan type                        : Progressive
    Bits/(Pixel*Frame)               : 0.106
    Stream size                      : 586 MiB (84%)
    Writing library                  : XviD 1.1.2 (UTC 2006-11-01)
    
    Audio
    Format                           : MPEG Audio
    Format version                   : Version 1
    Format profile                   : Layer 3
    Codec ID                         : 55
    Codec ID/Hint                    : MP3
    Duration                         : 1h 23mn
    Bit rate mode                    : Variable
    Bit rate                         : 178 Kbps
    Minimum bit rate                 : 192 Kbps
    Channel(s)                       : 2 channels
    Sampling rate                    : 48.0 KHz
    Resolution                       : 16 bits
    Stream size                      : 106 MiB (15%)
    Alignment                        : Aligned on interleaves
    Interleave, duration             : 24 ms (0.60 video frame)
    Interleave, preload duration     : 536 ms
    Writing library                  : LAME3.97 
    Encoding settings                : ABR
    Caps



    Konu

    Alıntı
    Oyuncular : Carly Pope , Peter DeLuise
    Yönetmen : Paul Ziller
    Üniversite futbol takımının olduğu uçak, Himalaya dağlarının karlı, ıssız bir bölgesine düşer. Uçak kazasından kurtulan futbol oyuncuları dondurucu soğukta yardım aramaya başlarlar. Günler yardım bulamadan geçerken yemekleri ve artık umutları da tükenmeye başlamıştır. Kurtulan futbol oyuncuları ve takım kaptanı Sarah (Carly Pope) kurtulmaları için vicdanlarıyla savaşmaya başlamışlardır çünkü bunun tek yolu takım arkadaşlarının ölü vücutlarını kurtulmak için yemek kaynağı olarak kullanmalarıdır. Fakat tehlikeli gerçek yanlarında saklanıyordur; gizlice avlanan, kana susamış hayvan olan “Yeti”...
    Download

    [hide]
     
    http://rapidshare.com/files/145415302/Karadaki.Yaratik.2008.DVDRip.TR_Dublaj.part1.rar
    http://rapidshare.com/files/145415530/Karadaki.Yaratik.2008.DVDRip.TR_Dublaj.part2.rar
    http://rapidshare.com/files/145415718/Karadaki.Yaratik.2008.DVDRip.TR_Dublaj.part3.rar
    http://rapidshare.com/files/145415928/Karadaki.Yaratik.2008.DVDRip.TR_Dublaj.part4.rar
    http://rapidshare.com/files/145416135/Karadaki.Yaratik.2008.DVDRip.TR_Dublaj.part5.rar
    http://rapidshare.com/files/145416364/Karadaki.Yaratik.2008.DVDRip.TR_Dublaj.part6.rar
    http://rapidshare.com/files/145416593/Karadaki.Yaratik.2008.DVDRip.TR_Dublaj.part7.rar
    [/hide]



     
    RaR PaSS (Şifre)
    www.cshtr.com
    ...:: İyi Seyirler ::...


  2. #2

    Standart

    sağolasın abi ellerine sağlık

  3. #3

    Standart

    garip bi filme benziyi ellerine sağlık
    [email protected]@ ve MeMo bunu beğendi.

  4. #4

    Standart

    Paylaşım için teşekkürler. Fakat Film hakkında mesajımı yazmazsam rahat edemeyeceğim:

    çok rezil bir senaryo üzerine kurulmuş bir film. sadece oyuncuların hatırı için izlenebilir... Saçmalığın bu kadarı artık.
    [email protected]@ bunu beğendi.

  5. #5

    Standart

    tşler elınıze saglık
    [email protected]@ bunu beğendi.

  6. #6

    Standart

    hayatımda izlediğim belkide indirdiğim için tahammül edip hızlı hızlı geçtiğim süper saçma rezil bir film emeğine sağlık ancak film düşük bütçeli saçma bir film bir an dünyayı kurtaran adamı ziliyorum zannettim peluş canavarlar vs..
    [email protected]@ bunu beğendi.

  7. #7

    Standart

    tsklersaol
    [email protected]@ bunu beğendi.

  8. #8

    Standart

    emeğe saygı
    [email protected]@ bunu beğendi.

  9. #9

    Standart

    eline emegine saglık kardesim paylasımların devamını diler ellerin dert pcin zarar gormesin die duacı olurum
    [email protected]@ bunu beğendi.

  10. #10

    Standart

    sağolasın abi ellerine sağlık
    [email protected]@ ve mr_horoz bunu beğendi.

Benzer Konular

  1. Cevap: 23
    Son Mesaj : 31.Aralık.2015, 14:42
  2. Cevap: 0
    Son Mesaj : 28.Mayıs.2011, 16:04
  3. Penguen Fırlatmaca | Yeti Oyunu | Yarışma
    Konu Sahibi MUHAMMED Forum Yarışmalar, Flash, Animasyon ve Oyunlar
    Cevap: 3
    Son Mesaj : 15.Aralık.2010, 19:40
  4. Cevap: 3
    Son Mesaj : 18.Haziran.2010, 00:12