ÛÛ²ÛÛ           Adam.Resurrected.2008.720p.BluRay.x264-CiNEFiLE
ÛÛÛÛÛßßÜÜ                                                                      
ÛÛß      ßß                                                                    
²  Ü²Ü ÜÛÛÜ        Release Date ......: 09/18/09
  Ü ß  ß²Ûß                                                                    
  ² ²              Video .............. x264 @ 4365 kbps
  ²Ş²ÛİÜÛÛÜ        Audio .............. English 5.1 DTS 1509kbit/s
  Û ²ÛÛß²Ûß        Subtitles .......... English
  Şİ ²Û²Ü          Length ............. 106 min 30 sec
   ß Ş²Û±²Ü        Size ............... 4.37 gigs
    ß  ²Û²²Ü  Ü                                                                
        ÛÛ±²²ß ÜÜ  Ü Ü Ü  Ü ÜÜÜ ÜÜÜ ÜÜ  Ü ÜÜ  ÜÛÛÜ ÜÛÛÜ Ü²Ü Ü                  
        ŞÛÛ²ßÜ ²ÜÜ ß²ß ²ßܲ ² ² ² ² ²ÜÜ ² ²ÜÜ ßÛ²ß ßÛ²ß  ß                     
         ÛÛÜÛÛ  ÜÛ  Û  ²  Û ²ÜÛ ²ß   ÜÛ Ü  ÜÛ                                  
         ÛÛ²ÛÛ                                                                 
       ÜßßÛÛÛÛ                                                                 
   ÜÜßß     ß²     http://www.imdb.com/title/tt0479341/
     Ü²Ü ÜÛÛÜ                                                                  
    Ü ß  ß²Ûß      IMDB Rating.: 6.5/10   613 votes
NO PASSWORD-SINGLE EXTRACTION LINKS
Adam Resurrected (2008) 720p BluRay x264 CiNEFiLE
[hide]
 
http://rapidshare.com/files/284114455/Adam.Resurrected.2008.720p.BluRay.x264-CiNEFiLE.part01.rar
http://rapidshare.com/files/284112590/Adam.Resurrected.2008.720p.BluRay.x264-CiNEFiLE.part02.rar
http://rapidshare.com/files/284127798/Adam.Resurrected.2008.720p.BluRay.x264-CiNEFiLE.part03.rar
http://rapidshare.com/files/284112727/Adam.Resurrected.2008.720p.BluRay.x264-CiNEFiLE.part04.rar
http://rapidshare.com/files/284113185/Adam.Resurrected.2008.720p.BluRay.x264-CiNEFiLE.part05.rar
http://rapidshare.com/files/284115242/Adam.Resurrected.2008.720p.BluRay.x264-CiNEFiLE.part06.rar
http://rapidshare.com/files/284112649/Adam.Resurrected.2008.720p.BluRay.x264-CiNEFiLE.part07.rar
http://rapidshare.com/files/284130217/Adam.Resurrected.2008.720p.BluRay.x264-CiNEFiLE.part08.rar
http://rapidshare.com/files/284127527/Adam.Resurrected.2008.720p.BluRay.x264-CiNEFiLE.part09.rar
http://rapidshare.com/files/284127395/Adam.Resurrected.2008.720p.BluRay.x264-CiNEFiLE.part10.rar
http://rapidshare.com/files/284127358/Adam.Resurrected.2008.720p.BluRay.x264-CiNEFiLE.part11.rar
http://rapidshare.com/files/284114639/Adam.Resurrected.2008.720p.BluRay.x264-CiNEFiLE.part12.rar
http://rapidshare.com/files/284130080/Adam.Resurrected.2008.720p.BluRay.x264-CiNEFiLE.part13.rar
http://rapidshare.com/files/284112837/Adam.Resurrected.2008.720p.BluRay.x264-CiNEFiLE.part14.rar
http://rapidshare.com/files/284127464/Adam.Resurrected.2008.720p.BluRay.x264-CiNEFiLE.part15.rar
http://rapidshare.com/files/284128183/Adam.Resurrected.2008.720p.BluRay.x264-CiNEFiLE.part16.rar
http://rapidshare.com/files/284127846/Adam.Resurrected.2008.720p.BluRay.x264-CiNEFiLE.part17.rar
http://rapidshare.com/files/284115649/Adam.Resurrected.2008.720p.BluRay.x264-CiNEFiLE.part18.rar
http://rapidshare.com/files/284115014/Adam.Resurrected.2008.720p.BluRay.x264-CiNEFiLE.part19.rar
http://rapidshare.com/files/284113152/Adam.Resurrected.2008.720p.BluRay.x264-CiNEFiLE.part20.rar
http://rapidshare.com/files/284115432/Adam.Resurrected.2008.720p.BluRay.x264-CiNEFiLE.part21.rar
http://rapidshare.com/files/284113380/Adam.Resurrected.2008.720p.BluRay.x264-CiNEFiLE.part22.rar
http://rapidshare.com/files/284127234/Adam.Resurrected.2008.720p.BluRay.x264-CiNEFiLE.part23.rar
[/hide]
NO PASSWORD-SINGLE EXTRACTION LINKS
 
General
Complete name                    : Adam.Resurrected.2008.720p.BluRay.x264-CiNEFiLE.mkv
Format                           : Matroska
File size                        : 4.37 GiB
Duration                         : 1h 46mn
Overall bit rate                 : 5 876 Kbps
Encoded date                     : UTC 2009-09-18 06:45:00
Writing application              : mkvmerge v2.8.0 ('The Tree') built on May  9 2009 18:02:06
Writing library                  : libebml v0.7.7 + libmatroska v0.8.1

Video
ID                               : 1
Format                           : AVC
Format/Info                      : Advanced Video Codec
Format profile                   : [email protected]
Format settings, CABAC           : Yes
Format settings, ReFrames        : 5 frames
Muxing mode                      : Container [email protected]
Codec ID                         : V_MPEG4/ISO/AVC
Duration                         : 1h 46mn
Bit rate                         : 4 249 Kbps
Nominal bit rate                 : 4 365 Kbps
Width                            : 1 280 pixels
Height                           : 544 pixels
Display aspect ratio             : 2.35
Frame rate                       : 23.976 fps
Resolution                       : 24 bits
Colorimetry                      : 4:2:0
Scan type                        : Progressive
Bits/(Pixel*Frame)               : 0.255
Stream size                      : 3.16 GiB (72%)
Writing library                  : x264 core 75 r1251 e553a4c
Language                         : English

Audio
ID                               : 2
Format                           : DTS
Format/Info                      : Digital Theater Systems
Codec ID                         : A_DTS
Duration                         : 1h 46mn
Bit rate mode                    : Constant
Bit rate                         : 1 510 Kbps
Channel(s)                       : 6 channels
Channel positions                : Front: L C R, Surround: L R, LFE
Sampling rate                    : 48.0 KHz
Resolution                       : 24 bits
Stream size                      : 1.12 GiB (26%)

Text
ID                               : 3
Format                           : UTF-8
Codec ID                         : S_TEXT/UTF8
Codec ID/Info                    : UTF-8 Plain Text
Language                         : English
ENJOY&PLEASE DONT FORGET TO SAY THANKS