[NFO]
 
  ▄▓█▓ ▐▌ ▄▄▄▄ ▄▄▄ ▄▄▄  ▄▄▄  ▄▄▄▄ ▄▄▄  ▄▄▄              ██▄██ ░  ▄▀         
   ▄▓▒█▓  ▀  █▓ ▓ █▓▄  █▓  █▓▄  █▓ ▓ █▓▄▄ █▓▄              ██▓██ ▒     ▄██▄    
  ▄▓▓█▓  ▀   █▓▀▄ █▓▄▄ █▓▄ █▓▄▄ █▓▀█  ▄▄█ █▓▄▄           ▄▀▀████ ▓  ▀  ▀█▓▀    
 ▓▓▒██   ▄  ▄ ▄▄▄ ▄▄▄ ▄▄▄ ▄▄  ▄                      ▄▄▀▀     ▀▓               
▐█▓██▌   ▓▀▄▓ ▓ ▓  ▓  ▓▄  ▓▄▄ ▓  ▄██▄ ▄██▄ ▄▓▄                                 
█▓▓▒██   ▓  █ ▓▄█  ▓  ▓▄▄  ▄█ ▄  ▀█▓▀ ▀█▓▀  ▀                                  
██▓██▌                                                                         
█████                                                                          
██▓██           The.Nest.2002.720p.BluRay.x264-CiNEFiLE
█████▀▀▄▄                                                                      
██▀      ▀▀                                                                    
▓  ▄▓▄ ▄██▄        Release Date ......: 09/04/09
  ▄ ▀  ▀▓█▀                                                                    
  ▓ ▓              Video .............. x264 @ 4324 kbps
  ▓▐▓█▌▄██▄        Audio .............. French 5.1 DTS 1536kbit/s
  █ ▓██▀▓█▀        Subtitles .......... English
  ▐▌ ▓█▓▄          Length ............. 107 min 16 sec
   ▀ ▐▓█▒▓▄        Size ............... 4.37 gigs
    ▀  ▓█▓▓▄  ▄                                                                
        ██▒▓▓▀ ▄▄  ▄ ▄ ▄  ▄ ▄▄▄ ▄▄▄ ▄▄  ▄ ▄▄  ▄██▄ ▄██▄ ▄▓▄ ▄                  
        ▐██▓▀▄ ▓▄▄ ▀▓▀ ▓▀▄▓ ▓ ▓ ▓ ▓ ▓▄▄ ▓ ▓▄▄ ▀█▓▀ ▀█▓▀  ▀                     
         ██▄██  ▄█  █  ▓  █ ▓▄█ ▓▀   ▄█ ▄  ▄█                                  
         ██▓██                                                                 
       ▄▀▀████                                                                 
   ▄▄▀▀     ▀▓     http://www.imdb.com/title/tt0280990/
     ▄▓▄ ▄██▄                                                                  
    ▄ ▀  ▀▓█▀      IMDB Rating.: 6.7/10   2,625 votes

General

Format                           : Matroska
File size                        : 4.37 GiB
Duration                         : 1h 47mn
Overall bit rate                 : 5 835 Kbps
Encoded date                     : UTC 2009-09-03 13:42:03
Writing application              : mkvmerge v2.9.8 ('C'est le bon') built on Aug 13 2009 12:49:06
Writing library                  : libebml v0.7.7 + libmatroska v0.8.1

Video
ID                               : 1
Format                           : AVC
Format/Info                      : Advanced Video Codec
Format profile                   : [email protected]
Format settings, CABAC           : Yes
Format settings, ReFrames        : 5 frames
Muxing mode                      : Container [email protected]
Codec ID                         : V_MPEG4/ISO/AVC
Duration                         : 1h 47mn
Bit rate                         : 4 209 Kbps
Nominal bit rate                 : 4 324 Kbps
Width                            : 1 280 pixels
Height                           : 544 pixels
Display aspect ratio             : 2.35
Frame rate                       : 24.000 fps
Resolution                       : 24 bits
Colorimetry                      : 4:2:0
Scan type                        : Progressive
Bits/(Pixel*Frame)               : 0.252
Stream size                      : 3.15 GiB (72%)
Title                            : Video
Writing library                  : x264 core 73 r1243 2cd0054
Language                         : French

Audio
ID                               : 2
Format                           : DTS
Format/Info                      : Digital Theater Systems
Codec ID                         : A_DTS
Duration                         : 1h 47mn
Bit rate mode                    : Constant
Bit rate                         : 1 510 Kbps
Channel(s)                       : 6 channels
Channel positions                : Front: L C R, Surround: L R, LFE
Sampling rate                    : 48.0 KHz
Resolution                       : 24 bits
Stream size                      : 1.13 GiB (26%)
Title                            : French DTS
Language                         : French

Text
ID                               : 3
Format                           : UTF-8
Codec ID                         : S_TEXT/UTF8
Codec ID/Info                    : UTF-8 Plain Text
Title                            : English
Language                         : English
The.Nest.2002.720p.BluRay.x264-CiNEFiLE
[hide]
 
http://rapidshare.com/files/276317235/The.Nest.2002.720p.BluRay.x264-CiNEFiLE.part01.rar
http://rapidshare.com/files/276310718/The.Nest.2002.720p.BluRay.x264-CiNEFiLE.part02.rar
http://rapidshare.com/files/276317513/The.Nest.2002.720p.BluRay.x264-CiNEFiLE.part03.rar
http://rapidshare.com/files/276317015/The.Nest.2002.720p.BluRay.x264-CiNEFiLE.part04.rar
http://rapidshare.com/files/276316128/The.Nest.2002.720p.BluRay.x264-CiNEFiLE.part05.rar
http://rapidshare.com/files/276316462/The.Nest.2002.720p.BluRay.x264-CiNEFiLE.part06.rar
http://rapidshare.com/files/276310806/The.Nest.2002.720p.BluRay.x264-CiNEFiLE.part07.rar
http://rapidshare.com/files/276312746/The.Nest.2002.720p.BluRay.x264-CiNEFiLE.part08.rar
http://rapidshare.com/files/276315520/The.Nest.2002.720p.BluRay.x264-CiNEFiLE.part09.rar
http://rapidshare.com/files/276316293/The.Nest.2002.720p.BluRay.x264-CiNEFiLE.part10.rar
http://rapidshare.com/files/276312958/The.Nest.2002.720p.BluRay.x264-CiNEFiLE.part11.rar
http://rapidshare.com/files/276314339/The.Nest.2002.720p.BluRay.x264-CiNEFiLE.part12.rar
http://rapidshare.com/files/276311605/The.Nest.2002.720p.BluRay.x264-CiNEFiLE.part13.rar
http://rapidshare.com/files/276310506/The.Nest.2002.720p.BluRay.x264-CiNEFiLE.part14.rar
http://rapidshare.com/files/276312018/The.Nest.2002.720p.BluRay.x264-CiNEFiLE.part15.rar
http://rapidshare.com/files/276310982/The.Nest.2002.720p.BluRay.x264-CiNEFiLE.part16.rar
http://rapidshare.com/files/276316392/The.Nest.2002.720p.BluRay.x264-CiNEFiLE.part17.rar
http://rapidshare.com/files/276315745/The.Nest.2002.720p.BluRay.x264-CiNEFiLE.part18.rar
http://rapidshare.com/files/276311606/The.Nest.2002.720p.BluRay.x264-CiNEFiLE.part19.rar
http://rapidshare.com/files/276317282/The.Nest.2002.720p.BluRay.x264-CiNEFiLE.part20.rar
http://rapidshare.com/files/276318630/The.Nest.2002.720p.BluRay.x264-CiNEFiLE.part21.rar
http://rapidshare.com/files/276316760/The.Nest.2002.720p.BluRay.x264-CiNEFiLE.part22.rar
http://rapidshare.com/files/276312099/The.Nest.2002.720p.BluRay.x264-CiNEFiLE.part23.rar
[/hide]


 
No pass